Loading...
Error

Скачать Ничего не вижу, ничего не слышу / See No Evil, Hear No Evil (Артур Хиллер) [1989 г, криминальная комедия, DVDRip] [MVO] (СТС) торрент без регистрации

 
Статистика раздачи
Размер:  1,46 GB   |    Скачан:  138 раз
Сидов:  1  [  0 KB/s  ]  
 
Автор Сообщение

leon030982

[] 

Ничего не вижу, ничего не слышу / See No Evil, Hear No Evil
Страна: США
Жанр: криминальная комедия
Год выпуска: 1989
Продолжительность: 01:42:05
Перевод: Профессиональный (многоголосый закадровый)
Режиссер: Артур Хиллер
В ролях: Ричард Прайор, Джин Уайлдер, Джоан Северанс, Кевин Спейси, Алан Норт, Энтони Зербе

Описание:
На глазах у Уолли совершено убийство, но Уолли слепой. Дэйв слышал все, но он глух, как пробка. Вместе ребята - идеальные свидетели преступления для самих преступников и единственные подозреваемые для полицейских. И те, и другие начинают погоню за несчастной парочкой...

Доп. информация:
За DVDRip спасибо $in0bi
ТВ перевод был записан с канала СТС с эфира от 28.07.2011.
Текст читали: Александр Новиков, Алексей Борзунов, Елена Борзунова (СЭМПЛ)
Качество: DVDRip
Формат: AVI
Видео кодек: XviD
Аудио кодек: AC3
Видео: 720x384, 23.976 fps, XviD ~1843 kbps avg, 0.278 bit/pixel
Аудио: Dolby AC3; Rus; 48000Hz; 2ch; 192kbps [многоголосый перевод] СТС
Я прекрасно понимаю, что народный перевод Михалева по праву считается самым лучшим на этот фильм.
Но перевод для канала СТС осуществлялся объединением "Русский дубляж" в 2004ом году, в озвучании принимали участие прекрасные актеры - мастера своего дела. Так что это версия вполне заслуживает место под солнцем
П.С. В промежутке 00:37:12-00:46:00 вставлен перевод "ПЕРВОГО КАНАЛА", т.к. по СТС крутили "слегка" отличную от DVD версию фильма.
General
General
Complete name : H:\Кино\see no evil\See.No.Evil,Hear.No.Evil.1989.MVO-CTC.avi
Format : AVI
Format/Info : Audio Video Interleave
File size : 1.46 GiB
Duration : 1h 42mn
Overall bit rate : 2 044 Kbps
Movie name : Ничего не вижу, ничего не слышу / See No Evil, Hear No Evil (1989)
Director : Nike-M@n
Genre : Comedy
Writing application : VirtualDubMod 1.5.10.2 (build 2542/release)
Writing library : VirtualDubMod build 2542/release
Comment : 6.09.2009
Video
ID : 0
Format : MPEG-4 Visual
Format profile : Advanced Simple@L5
Format settings, BVOP : Yes
Format settings, QPel : No
Format settings, GMC : No warppoints
Format settings, Matrix : Custom
Codec ID : XVID
Codec ID/Hint : XviD
Duration : 1h 42mn
Bit rate : 1 843 Kbps
Width : 720 pixels
Height : 384 pixels
Display aspect ratio : 1.875
Frame rate : 23.976 fps
Color space : YUV
Chroma subsampling : 4:2:0
Bit depth : 8 bits
Scan type : Progressive
Bits/(Pixel*Frame) : 0.278
Stream size : 1.31 GiB (90%)
Writing library : XviD 1.2.1 (UTC 2008-12-04)
Audio
ID : 1
Format : AC-3
Format/Info : Audio Coding 3
Mode extension : CM (complete main)
Codec ID : 2000
Duration : 1h 42mn
Bit rate mode : Constant
Bit rate : 192 Kbps
Channel(s) : 2 channels
Channel positions : Front: L R
Sampling rate : 48.0 KHz
Bit depth : 16 bits
Stream size : 140 MiB (9%)
Alignment : Split accross interleaves
Interleave, duration : 42 ms (1.00 video frame)
Interleave, preload duration : 500 ms



Скачать Ничего.не.вижу.ничего.не.слышу.See.No.Evil.Hear.No.Evil.(Артур.Хиллер).[1989.г.криминальная.комедия.DVDRip].[MVO].(СТС).torrent без регистрации
Золото ЗОЛОТАЯ РАЗДАЧА! СКАЧАННОЕ НЕ ЗАСЧИТЫВАЕТСЯ! Золото
Дата: Зарегистрирован   [ Тип: внутренний ] Как тут cкачать?
MAGNET ссылка
MAGNET ссылка


Скачать .torrent

8 KB

Статус: проверено DHT
Скачан: торрент - 138 раз, раздача полностью - 17 раз
Размер: 1,46 GB
Оценка:  - (Голосов: 0)
Поблагодарили: 1
Поделиться ссылкой на эту раздачу с друзьями:
В контактеFacebookОдноклассникиTwitterLivejournalМой МирLiveinternet
 

 
Показать сообщения:    


Вы не можете начинать темы
Вы не можете отвечать на сообщения
Вы не можете редактировать свои сообщения
Вы не можете удалять свои сообщения
Вы не можете голосовать в опросах
Вы не можете прикреплять файлы к сообщениям
Вы можете скачивать файлы