Loading...
Error

Скачать Клан Кеннеди / The Kennedys (Сезон 1 полный) (Джон Кассар) [2011, драма, исторический, BDRip] [1080p] [MVO] (Ozz) + [MVO] (LostFilm) + [MVO] (BBC Saint-Petersburg / NewStudio) торрент без регистрации

 
Статистика раздачи
Размер:  34,34 GB   |    Скачан:  113 раз

Полного источника не было: 27 минут

 
Автор Сообщение

leon030982

[] 

Клан Кеннеди / The Kennedys / 1080p

Год выпуска: 2011
Страна: США, Канада
Жанр: драма, исторический
Продолжительность: 00:43:00

Перевод: Профессиональный многоголосый закадровый - Ozz
Перевод 2: Профессиональный многоголосый закадровый - BBC Saint-Petersburg / NewStudio
Перевод 3: Профессиональный многоголосый закадровый - LostFilm

Русские субтитры: есть
Субтитры: Русские, Английские

Режиссёр: Джон Кассар

В ролях: Грег Киннер, Бэрри Пеппер, Кэти Холмс, Том Уилкинсон, Ава Престон, Диана Хардкэсл, Джэйк Бил, Robbin MacDonald, Элиза Престон, Серж Уд и др.

Описание: Сюжет сериала строится вокруг семьи Кеннеди и событий, которые им довелось пережить в середине XX века.

Сэмпл: http://narod.ru/disk/39651030001/The_Kennedys_1080p-Sample.mkv.html

Качество: BDRip
Формат: MKV
Видео кодек: H.264
Аудио кодек: AC3
Видео: 1920 Х 1080 / 23.976 fps / ~9300 kbp/s / 0.189 bt/px
Аудио: DTS / 5.1 / 48 Khz / ~1509 kbp/s - Ozz
Аудио 2: DTS / 5.1 / 48 Khz / ~1509 kbp/s - BBC Saint-Petersburg / NewStudio
Аудио 3: AC3 / 2.0 / 48 Khz / ~192 kbp/s - LostFilm
Аудио 4: DTS / 5.1 / 48 Khz / ~1509 kbp/s - Английская
Субтитры: SUP/PGS
General
Unique ID : 197825481314516124464827370076742508507 (0x94D3CD443FB2FA70950BE38410C65FDB)
Complete name : O:\Сериалы\The_Kennedys_1080p\The_Kennedys_01_3xDTS_AC3_1080p.mkv
Format : Matroska
Format version : Version 2
File size : 4.29 GiB
Duration : 43mn 31s
Overall bit rate : 14.1 Mbps
Movie name : Клан Кеннеди / The Kennedys - 01 Серия / Релиз - D2T/"Криволапый ювелир"
Encoded date : UTC 2012-02-04 20:57:39
Writing application : mkvmerge v4.0.0 ('The Stars were mine') сборка от Jun 6 2010 16:18:42
Writing library : libebml v1.0.0 + libmatroska v1.0.0

Video
ID : 1
Format : AVC
Format/Info : Advanced Video Codec
Format profile : [url=mailto:High@L4.0]High@L4.0[/url]
Format settings, CABAC : Yes
Format settings, ReFrames : 4 frames
Codec ID : V_MPEG4/ISO/AVC
Duration : 43mn 31s
Bit rate : 9 390 Kbps
Width : 1 920 pixels
Height : 1 080 pixels
Display aspect ratio : 16:9
Frame rate : 23.976 fps
Color space : YUV
Chroma subsampling : 4:2:0
Bit depth : 8 bits
Scan type : Progressive
Bits/(Pixel*Frame) : 0.189
Stream size : 2.77 GiB (65%)
Writing library : x264 core 116 r2074 2641b9e
Encoding settings : cabac=1 / ref=4 / deblock=1:-1:-1 / analyse=0x3:0x113 / me=tesa / subme=9 / psy=1 / psy_rd=1.00:0.00 / mixed_ref=1 / me_range=16 / chroma_me=1 / trellis=2 / 8x8dct=1 / cqm=0 / deadzone=21,11 / fast_pskip=1 / chroma_qp_offset=-2 / threads=6 / sliced_threads=0 / nr=0 / decimate=1 / interlaced=0 / bluray_compat=0 / constrained_intra=0 / bframes=3 / b_pyramid=0 / b_adapt=2 / b_bias=0 / direct=3 / weightb=1 / open_gop=0 / weightp=2 / keyint=150 / keyint_min=1 / scenecut=33 / intra_refresh=0 / rc_lookahead=40 / rc=2pass / mbtree=1 / bitrate=9390 / ratetol=1.0 / qcomp=0.60 / qpmin=10 / qpmax=26 / qpstep=4 / cplxblur=20.0 / qblur=0.5 / ip_ratio=1.40 / aq=1:1.00
Language : English

Audio #1
ID : 2
Format : DTS
Format/Info : Digital Theater Systems
Codec ID : A_DTS
Duration : 43mn 31s
Bit rate mode : Constant
Bit rate : 1 510 Kbps
Channel(s) : 6 channels
Channel positions : Front: L C R, Side: L R, LFE
Sampling rate : 48.0 KHz
Bit depth : 16 bits
Compression mode : Lossy
Stream size : 470 MiB (11%)
Title : Ozz
Language : Russian

Audio #2
ID : 3
Format : DTS
Format/Info : Digital Theater Systems
Codec ID : A_DTS
Duration : 43mn 31s
Bit rate mode : Constant
Bit rate : 1 510 Kbps
Channel(s) : 6 channels
Channel positions : Front: L C R, Side: L R, LFE
Sampling rate : 48.0 KHz
Bit depth : 16 bits
Compression mode : Lossy
Stream size : 470 MiB (11%)
Title : NewStudio + BBC Saint-Petersburg
Language : Russian

Audio #3
ID : 4
Format : AC-3
Format/Info : Audio Coding 3
Mode extension : CM (complete main)
Codec ID : A_AC3
Duration : 43mn 31s
Bit rate mode : Constant
Bit rate : 192 Kbps
Channel(s) : 2 channels
Channel positions : Front: L R
Sampling rate : 48.0 KHz
Bit depth : 16 bits
Compression mode : Lossy
Stream size : 59.8 MiB (1%)
Title : LostFilm
Language : Russian

Audio #4
ID : 5
Format : DTS
Format/Info : Digital Theater Systems
Codec ID : A_DTS
Duration : 43mn 31s
Bit rate mode : Constant
Bit rate : 1 510 Kbps
Channel(s) : 6 channels
Channel positions : Front: L C R, Side: L R, LFE
Sampling rate : 48.0 KHz
Bit depth : 16 bits
Compression mode : Lossy
Stream size : 470 MiB (11%)
Language : English

Text #1
ID : 6
Format : VobSub
Muxing mode : zlib
Codec ID : S_VOBSUB
Codec ID/Info : The same subtitle format used on DVDs
Language : Russian

Text #2
ID : 7
Format : VobSub
Muxing mode : zlib
Codec ID : S_VOBSUB
Codec ID/Info : The same subtitle format used on DVDs
Language : English
"Криволапый ювелир"



Скачать Клан.Кеннеди.The.Kennedys.(Сезон.1.полный).(Джон.Кассар).[2011.драма.исторический.BDRip].[1080p].[MVO].(Ozz).+.[MVO].(LostFilm).+.[MVO].(BBC.Saint-Petersburg.NewStudio).torrent без регистрации
Золото ЗОЛОТАЯ РАЗДАЧА! СКАЧАННОЕ НЕ ЗАСЧИТЫВАЕТСЯ! Золото
Дата: Зарегистрирован   [ Тип: внутренний ] Как тут cкачать?
MAGNET ссылка
MAGNET ссылка


Скачать .torrent

88 KB

Статус: проверено DHT
Скачан: торрент - 113 раз, раздача полностью - 21 раз
Размер: 34,34 GB
Оценка:  5 (Голосов: 1)
Поблагодарили: 4
Поделиться ссылкой на эту раздачу с друзьями:
В контактеFacebookОдноклассникиTwitterLivejournalМой МирLiveinternet
 

 
Показать сообщения:    


Вы не можете начинать темы
Вы не можете отвечать на сообщения
Вы не можете редактировать свои сообщения
Вы не можете удалять свои сообщения
Вы не можете голосовать в опросах
Вы не можете прикреплять файлы к сообщениям
Вы можете скачивать файлы