Loading...
Error

Скачать Читающий мысли / The Listener (сезон 02) (Майкл Амо) [2010, Драма, HDTVRip] [MVO Fox Life] торрент без регистрации

 
Статистика раздачи
Размер:  4,93 GB   |    Скачан:  371 раз
Сидов:  1  [  0 KB/s  ]  
 
Автор Сообщение

МихаНЕзатор

[] 

Читающий мысли / The Listener
Год выпуска: 2010
Страна: Канада
Жанр: Драма
Продолжительность: 00:42:00
Перевод: Профессиональный (многоголосый закадровый) - Fox Life
Русские субтитры: нет
Субтитры: отсутствуют
Режиссёр: Майкл Амо

В ролях: Крейг Олейник, Лиза Маркос, Эннис Эсмер, Милен Дин-Робик

Описание: Тоби Логан - 30-летний парамедик, обладающий способностью читать мысли людей. В один прекрасный день он решает использовать свой дар на благо других людей и помогать раскрывать преступления.


Rip by r00tor

Качество: HDTVRip
Формат: AVI
Видео кодек: XviD
Аудиокодек: MP3
Видео: 624x352 (1.77:1), 23.976 fps, XviD MPEG-4 ~1051 kbps avg, 0.20 bit/pixel
Аудио (rus): 48 kHz, MPEG Layer 3, 2 ch, ~128.00 kbps avg
Аудио 2 (eng): 48 kHz, MPEG Layer 3, 2 ch, ~127.52 kbps avg
General
Complete name : I:\Закачки\The.Listener.Season.2 [riperam]\The Listener S2 E01 - Lady in the Lake.avi
Format : AVI
Format/Info : Audio Video Interleave
File size : 388 MiB
Duration : 40mn 56s
Overall bit rate : 1 326 Kbps
Writing application : VirtualDubMod 1.5.10.2 (build 2540/release)
Writing library : VirtualDubMod build 2540/release
Video
Format : MPEG-4 Visual
Format profile : Streaming Video@L1
Format settings, BVOP : Yes
Format settings, QPel : No
Format settings, GMC : No warppoints
Format settings, Matrix : Default (H.263)
Muxing mode : Packed bitstream
Codec ID : XVID
Codec ID/Hint : XviD
Duration : 40mn 56s
Bit rate : 1 053 Kbps
Width : 624 pixels
Height : 352 pixels
Display aspect ratio : 16/9
Frame rate : 23.976 fps
Resolution : 24 bits
Colorimetry : 4:2:0
Scan type : Progressive
Bits/(Pixel*Frame) : 0.200
Stream size : 308 MiB (79%)
Writing library : XviD 1.2.1 (UTC 2008-12-04)
Audio #1
Format : MPEG Audio
Format version : Version 1
Format profile : Layer 3
Codec ID : 55
Codec ID/Hint : MP3
Duration : 40mn 56s
Bit rate mode : Constant
Bit rate : 128 Kbps
Channel(s) : 2 channels
Sampling rate : 48.0 KHz
Resolution : 16 bits
Stream size : 37.5 MiB (10%)
Alignment : Aligned on interleaves
Interleave, duration : 42 ms (1.00 video frame)
Interleave, preload duration : 504 ms
Audio #2
Format : MPEG Audio
Format version : Version 1
Format profile : Layer 3
Codec ID : 55
Codec ID/Hint : MP3
Duration : 40mn 56s
Bit rate mode : Variable
Bit rate : 128 Kbps
Channel(s) : 2 channels
Sampling rate : 48.0 KHz
Resolution : 16 bits
Stream size : 37.3 MiB (10%)
Alignment : Aligned on interleaves
Interleave, duration : 24 ms (0.58 video frame)
Interleave, preload duration : 554 ms
Раздача ведётся путём добавления новых серий; при каждом добавлении создаётся новый торрент. Чтобы начать докачку новой серии, пользователям необходимо сделать следующее:
(1) остановить скачивание,
(2) удалить старый торрент у себя из клиента (старые серии удалять не надо),
(3) скачать новый торрент и запустить его у себя в клиенте вместо старого, при этом указать клиенту путь в старую папку куда и должно происходить скачивание новых серий.
Ваш клиент при этом должен произвести хеширование (проверку) старой папки (если не производит сам - помогите ему сделать это), и будет докачивать только те серии которых у вас ещё нет. Старые серии при этом не удаляются, а продолжают раздаваться!
Eсли вы уже удалили старые серии, то предотвратить повторную закачку старых серий можно, отжав галочку в соответствующих местах при запуске нового торрента. По возможности, желательно не удалять старые серии как можно дольше чтобы релизёр не столько продолжал раздавать старые серии, а смог сконцентрироваться на новых.



Скачать Читающий.мысли.The.Listener.(сезон.02).(Майкл.Амо).[2010.Драма.HDTVRip].[MVO.Fox.Life].torrent без регистрации
Золото ЗОЛОТАЯ РАЗДАЧА! СКАЧАННОЕ НЕ ЗАСЧИТЫВАЕТСЯ! Золото
Дата: Зарегистрирован   [ Тип: внутренний ] Как тут cкачать?
MAGNET ссылка
MAGNET ссылка


Скачать .torrent

26 KB

Статус: проверено DHT
Скачан: торрент - 371 раз, раздача полностью - 826 раз
Размер: 4,93 GB
Оценка:  4 (Голосов: 2)
Поблагодарили: 7
Поделиться ссылкой на эту раздачу с друзьями:
В контактеFacebookОдноклассникиTwitterLivejournalМой МирLiveinternet
 

 
Показать сообщения:    


Вы не можете начинать темы
Вы не можете отвечать на сообщения
Вы не можете редактировать свои сообщения
Вы не можете удалять свои сообщения
Вы не можете голосовать в опросах
Вы не можете прикреплять файлы к сообщениям
Вы можете скачивать файлы