Loading...
Error

Скачать Проклятье хромой медсестры / Kutukan suster ngesot (Давид Пирномо) [2009,ужасы, DVDRip] [DVO] торрент без регистрации

 
Статистика раздачи
Размер:  676 MB   |    Скачан:  133 раза
Сидов:  1  [  0 KB/s  ]  
 
Автор Сообщение

Jenek

[] 

Информация о фильме
Название: Проклятье хромой медсестры.
Оригинальное название: Kutukan suster ngesot
Год выхода: 2009
Жанр: ужасы
Режиссер: Давид Пирномо
В ролях: Рустам Анвар,Селин Евангелиста,Беату Люпита,Алиа Роза

О фильме:
Проклятие хромой медсестры - классическая индонезийская история о призраках с примесью молодежного слешэра. Сюжет ее прост и незатейлив: группа волейболисток и помощник тренера, после соревнований возвращаются домой в ночь четверга. Неожиданно дорога обрывается и они попадают в аварию. Пытаясь, найти помощь, небольшая группа молодежи отправляется на поиски помощи и попадает в заброшенную больницу голландской эпохи. В ней нет никого...ну почти никого. По коридорам бродит тихий ужас в виде хромой медсестры, которая разрывает своими острыми когтями всех, кто осмелился потревожить ее покой.


Страна: Индонезия
Продолжительность: 01:18:40
Перевод: Любительский (двухголосый закадровый) - Deadsno и Den904
фильм переведен Deadsno

Файл
Кодек: XviD
Качество: DVDRip
Видео: 720x576 ,25.00fps,1:25:1 ,1000Kbps
Звук: 48.0 KHz MP3 2/0 ch 192 Kbps (Russian)
Субтитры: английские неотключаемые(hardsubs)

Семпл

General
Complete name : C:Usersadminпроклятье хромой медсестры.avi
Format : AVI
Format/Info : Audio Video Interleave
File size : 676 MiB
Duration : 1h 18mn
Overall bit rate : 1 202 Kbps
Writing application : VirtualDubMod 1.5.10.3 (build 2550/release)
Writing library : VirtualDubMod build 2550/release

Video
ID : 0
Format : MPEG-4 Visual
Format profile : Simple@L3
Format settings, BVOP : No
Format settings, QPel : No
Format settings, GMC : No warppoints
Format settings, Matrix : Default (H.263)
Codec ID : XVID
Codec ID/Hint : XviD
Duration : 1h 18mn
Bit rate : 1 000 Kbps
Width : 720 pixels
Height : 576 pixels
Display aspect ratio : 5:4
Frame rate : 25.000 fps
Standard : PAL
Color space : YUV
Chroma subsampling : 4:2:0
Bit depth : 8 bits
Scan type : Progressive
Compression mode : Lossy
Bits/(Pixel*Frame) : 0.096
Stream size : 563 MiB (83%)
Writing library : XviD 1.1.0 Beta2 (UTC 2005-04-04)

Audio
ID : 1
Format : MPEG Audio
Format version : Version 1
Format profile : Layer 3
Mode : Joint stereo
Codec ID : 55
Codec ID/Hint : MP3
Duration : 1h 18mn
Bit rate mode : Constant
Bit rate : 192 Kbps
Channel(s) : 2 channels
Sampling rate : 48.0 KHz
Compression mode : Lossy
Stream size : 108 MiB (16%)
Alignment : Aligned on interleaves
Interleave, duration : 40 ms (1.00 video frame)
Interleave, preload duration : 504 ms
Writing library : LAME3.96



Скачать Проклятье.хромой.медсестры.Kutukan.suster.ngesot.(Давид.Пирномо).[2009.ужасы.DVDRip].[DVO].torrent без регистрации
Золото ЗОЛОТАЯ РАЗДАЧА! СКАЧАННОЕ НЕ ЗАСЧИТЫВАЕТСЯ! Золото
Дата: Зарегистрирован   [ Тип: внутренний ] Как тут cкачать?
MAGNET ссылка
MAGNET ссылка


Скачать .torrent

14 KB

Статус: проверено DHT
Скачан: торрент - 133 раз, раздача полностью - 508 раз
Размер: 676 MB
Оценка:  - (Голосов: 0)
Поблагодарили: 2
Поделиться ссылкой на эту раздачу с друзьями:
В контактеFacebookОдноклассникиTwitterLivejournalМой МирLiveinternet
 

 
Показать сообщения:    


Вы не можете начинать темы
Вы не можете отвечать на сообщения
Вы не можете редактировать свои сообщения
Вы не можете удалять свои сообщения
Вы не можете голосовать в опросах
Вы не можете прикреплять файлы к сообщениям
Вы можете скачивать файлы