Loading...
Error

Скачать Одна ночь с королем / One Night with the King (Майкл О. Сажбел) [2006, драма, BDRip] [AVC] [DVO] торрент без регистрации

 
Статистика раздачи
Размер:  1,45 GB   |    Скачан:  129 раз
Сидов:  1  [  0 KB/s  ]  
 
Автор Сообщение

Marsianka

[] 

Одна ночь с королем / One Night with the King (2006) BDRip-AVC от PowerTracker

Жанр: драма
Страна: США
Режиссер: Майкл О. Сажбел
В ролях: Тиффани Дюпон, Люк Госс, Джон Ноубл, Омар Шариф, Джон Рис-Дэвис, Томми Листер, Джеймс Кэллис, Питер ОТул, Джавен Кэмпбелл...

Сюжет фильма: Действие фильма происходит в персидском городе Сузы. Король Ксеркс созывает всех на пир. Хадасса, красивая еврейская сирота, решает поехать с караваном в Иерусалим, чтобы увидеть Святую землю, вместе с другом Джесси Бен-Джозефом. Они приходят на пир короля, который тот устраивает накануне войны, ведомой, чтобы отомстить за смерть своего отца, Дария. Хадасса и Джесси видят, как королева Вашти отказывается приходить на праздник короля, так как она против войны, и созывает свой пир, говоря королю, что не станет унижаться и не придет на его пир.

Король решает в таком случае лишить Вашти титула королевы и выбрать себе новую жену среди девушек Суз. Хадасса по рекомендации ее дяди Мордекая меняет свое имя на Эсфирь (в честь вавилонской богини Иштар). Во дворце за кандидатками следит королевский евнух Хигай. Девушкам предоставлены одежды, косметика, украшения - все, что понравится королю в свою единственную ночь. Эсфирь нравится Хигаю, благодаря своей находчивости и целостности, и он предлагает ей читать королю в ее ночь. Эсфирь дают свиток королевских хроник, но она рассказывает королю библейскую историю Иакова и Рахиль. Король удивлен и хочет, чтобы девушка ему читала снова...


Мировая премьера: 10 октября 2006



Продолжительность: 01:57:32
Качество видео: BDRip-AVC
Видео: кодек: x264, размер кадра: 960х400, битрейт: 1379 кб/с, bit/pixel: 0.144
Аудио: язык: Русский , перевод: профессиональный двухголосый закадровый, кодек: AC3 5.1, битрейт: 384.00 кб/с

&

* Первоначально планировалось, что фильм выйдет в 2005 году.
* Книга Эсфири (которая легла в основу сюжета), была одна их двух книг Ветхого Завета, где не упоминался Бог. Наиболее приближено к этому момент, когда Мордехай сказал Эсфирь: "Мы будем молиться за тебя". Вторая книга - Песня Песен.
* Британское издание на DVD называлось "Принцесса Персии", несмотря на то, что Эсфирь была королевой, а не принцессой. Это было сделано с целью извлечь выгоду из несвязанного с данным произведением фильма "Принц Персии: Пески времени", вышедшего на три дня раньше.
Общее
Уникальный идентификатор : 226608838604911956533223148780740883400 (0xAA7B4658D8E541ED80B15D99EFD333C8)
Полное имя : D:One Night with the King.2006.BDRip-AVC.PT.mkv
Формат : Matroska
Версия формата : Version 2
Размер файла : 1,45 Гбайт
Продолжительность : 1 ч. 57 м.
Общий поток : 1764 Кбит/сек
Название фильма : Одна ночь с королем / One Night with the King (2006) BDRip-AVC rip by rulya74
Дата кодирования : UTC 2012-02-20 12:38:58
Программа кодирования : mkvmerge v5.2.1 ('A Far Off Place') built on Jan 2 2012 23:21:10
Библиотека кодирования : libebml v1.2.3 + libmatroska v1.3.0

Видео
Идентификатор : 1
Формат : AVC
Формат/Информация : Advanced Video Codec
Профиль формата : High@L4.1
Параметр CABAC формата : Да
Параметр ReFrames формата : 7 кадров
Идентификатор кодека : V_MPEG4/ISO/AVC
Продолжительность : 1 ч. 57 м.
Битрейт : 1379 Кбит/сек
Ширина : 960 пикселей
Высота : 400 пикселей
Соотношение сторон : 2,40:1
Частота кадров : 25,000 кадров/сек
Цветовое пространство : YUV
Субдискретизация насыщенности : 4:2:0
Битовая глубина : 8 бит
Тип развёртки : Прогрессивная
Бит/(Пиксели*Кадры) : 0.144
Размер потока : 1,10 Гбайт (76%)
Библиотека кодирования : x264 core 120 r2164 da19765
Настройки программы : cabac=1 / ref=7 / deblock=1:-1:-1 / analyse=0x3:0x113 / me=umh / subme=9 / psy=1 / psy_rd=1.00:0.00 / mixed_ref=1 / me_range=32 / chroma_me=1 / trellis=2 / 8x8dct=1 / cqm=0 / deadzone=21,11 / fast_pskip=1 / chroma_qp_offset=-2 / threads=6 / sliced_threads=0 / nr=0 / decimate=1 / interlaced=0 / bluray_compat=0 / constrained_intra=0 / bframes=6 / b_pyramid=2 / b_adapt=1 / b_bias=0 / direct=3 / weightb=1 / open_gop=0 / weightp=2 / keyint=250 / keyint_min=25 / scenecut=40 / intra_refresh=0 / rc=2pass / mbtree=0 / bitrate=1379 / ratetol=1.0 / qcomp=0.60 / qpmin=10 / qpmax=51 / qpstep=4 / cplxblur=20.0 / qblur=0.5 / ip_ratio=1.40 / pb_ratio=1.30 / aq=1:1.00
Default : Да
Forced : Нет

Аудио
Идентификатор : 2
Формат : AC-3
Формат/Информация : Audio Coding 3
Расширение режима : CM (complete main)
Идентификатор кодека : A_AC3
Продолжительность : 1 ч. 57 м.
Вид битрейта : Постоянный
Битрейт : 384 Кбит/сек
Каналы : 6 каналов
Расположение каналов : Front: L C R, Side: L R, LFE
Частота : 48,0 КГц
Битовая глубина : 16 бит
Метод сжатия : С потерями
Размер потока : 323 Мбайт (22%)
Заголовок : Профессиональный двухголосый
Язык : Russian
Default : Да
Forced : Нет



Скачать Одна.ночь.с.королем.One.Night.with.the.King.(Майкл.О.Сажбел).[2006.драма.BDRip].[AVC].[DVO].torrent без регистрации
Золото ЗОЛОТАЯ РАЗДАЧА! СКАЧАННОЕ НЕ ЗАСЧИТЫВАЕТСЯ! Золото
Дата: Зарегистрирован   [ Тип: внутренний ] Как тут cкачать?
MAGNET ссылка
MAGNET ссылка


Скачать .torrent

15 KB

Статус: проверено DHT
Скачан: торрент - 129 раз, раздача полностью - 84 раз
Размер: 1,45 GB
Оценка:  - (Голосов: 0)
Поблагодарили: 1
Поделиться ссылкой на эту раздачу с друзьями:
В контактеFacebookОдноклассникиTwitterLivejournalМой МирLiveinternet
 

 
Показать сообщения:    


Вы не можете начинать темы
Вы не можете отвечать на сообщения
Вы не можете редактировать свои сообщения
Вы не можете удалять свои сообщения
Вы не можете голосовать в опросах
Вы не можете прикреплять файлы к сообщениям
Вы можете скачивать файлы