Loading...
Error

Скачать Завтрак у Тиффани / Breakfast at Tiffany's (Блейк Эдвардс) [1961, драма, мелодрама, комедия, BDRip] [AVC] [MVO]+[AVO] торрент без регистрации

 
Статистика раздачи
Размер:  2,18 GB   |    Скачан:  163 раза
Сидов:  1  [  0 KB/s  ]  
 
Автор Сообщение

Marsianka

[] 

Завтрак у Тиффани / Breakfast at Tiffany's (1961) BDRip-AVC

Релиз от HQ-ViDEO

Год выхода: 1961
Страна: США
Жанр: драма, мелодрама, комедия
Режиссер: Блейк Эдвардс /Blake Edwards/

В ролях: Одри Хепберн /Audrey Hepburn/, Патриция Нил /Patricia Neal/, Джордж Пеппард /George Peppard/, Бадди Эбсен /Buddy Ebsen/, Мартин Болсам /Martin Balsam/, Хосе Луис де Вильялонга /Jose Luis de Vilallonga/, Джон МакГайвер /John McGiver/, Алан Рид /Alan Reed/, Дороти Уитни /Dorothy Whitney/, Беверли Пауэрс /Beverly Powers/.

О фильме: Переехав в новую квартиру, начинающий писатель сразу же знакомится со своей соседкой Холли, крайне эксцентричной девушкой, постоянно окруженной мужчинами и болтающей без умолку. Их явно тянет к друг другу, но взаимоотношения развиваются странно и мучительно, поскольку она, в каком-то смысле, дорогая девушка по вызову, а он находится на содержании у замужней женщины, оплачивающей его квартиру. Обоим очень нужны деньги, а их нет, и это приводит в отчаяние...



Релиз:

Автор рипа: agc

Продолжительность: 01:55:05 Информация о файле:
Качество: BDRip (Исходник: Blu-Ray Remux)
Формат: MKV
Видео: MPEG-4 AVC; x264 codec, 1024 x 576, (16:9); 23.976 fps; ~ 1814 kbps; 0.128 bit/pixel
Аудио #1: 48 kHz, AC3 Dolby Digital, 3/2 (L,C,R,l,r) + LFE ch, ~448.00 kbps avg | Film Prestige
Аудио #2: 48 kHz, AC3 Dolby Digital, 3/2 (L,C,R,l,r) + LFE ch, ~448.00 kbps avg | Eng
Аудио #3: 48 kHz, AC3 Dolby Digital, 3/2 (L,C,R,l,r) + LFE ch, ~448.00 kbps avg | Universal, CEE | отдельно на narod.ru
Аудио #4: 48 kHz, AC3 Dolby Digital, 2.0 Ch, ~192.00 kbps avg | пиратский DVD | отдельно на narod.ru
Аудио #5: 48 kHz, AC3 Dolby Digital, 2.0 Ch, ~192.00 kbps avg | ДВД Магия | отдельно на narod.ru
Аудио #6: 48 kHz, AC3 Dolby Digital, 3/2 (L,C,R,l,r) + LFE ch, ~448.00 kbps avg | Живов | отдельно на narod.ru
Аудио #7: 48 kHz, AC3 Dolby Digital, 2.0 Ch, ~192.00 kbps avg | Кузнецов | отдельно на narod.ru
Аудио #8: 48 kHz, AC3 Dolby Digital, 2.0 Ch, ~192.00 kbps avg | Медведев | отдельно на narod.ru
Размер: 2239,74 Mb (1/2 DVD)

Знаменитое маленькое черное платье, в котором героиня Хепберн появляется в фильме, было создано лично Юбером де Живанши.

Первоначально планировалось, что фильм снимет Джон Франкенхаймер, а главную роль сыграет Мэрилин Монро.

Знаменитая сцена в начале фильма, где Одри Хепберн идет в одиночестве по пустынным улицам Нью-Йорк, а затем подходит к магазину Tiffany, на самом деле снималась под наблюдением сотен зевак. Это раздражало Хепберн, и она постоянно ошибалась, но в конце концов сосредоточилась, и сцена была отснята.

Одри Хепберн признавалась, что эпизод, в котором она выкидывает кота на грязную, дождливую улицу, был самым неприятным для неё во всем фильме.

Немецкая почтовая марка 2001 года, для создания эскиза которой использовался образ Одри Хепберн из фильма «Завтрак у Тиффани», стала филателистической редкостью и стоит более 50 тысяч евро.

Магазин «Тиффани» специально для съемочной группы был открыт в воскресенье: это произошло впервые с девятнадцатого века.

Японская компания &laquoJun Planning» выпустила куклу Холли Голлайтли.

За роль в «Завтраке у Тиффани» Хепберн получила 750 тысяч долларов, став тогда самой высокооплачиваемой актрисой Голливуда.

По слухам роль Холли Голайтли могла сыграть Ким Новак.

Роль Пола Варжака предлагалась Стиву МакКуину, но он был вынужден отказаться, так как был занят на съемках фильма «Разыскивается живым или мертвым&raquo.

4 декабря 2006 года черное платье, которое носит героиня Одри Хепберн, было продано за 807 тысяч долларов на аукционе Сhristie's в Лондоне.

Первоначально текст песни начинался так: &laquoI'm Holly, like I want to be / like Holly on a tree back home...&raquo. Хотя фильм начинается с этой музыкальной темы, стихи на песню впервые звучат в сцене, где Пол «Фред» Варжак (персонаж в исполнении Джорджа Пеппарда), обнаруживает Холли Голайтли (героиню Одри Хепберн), с гитарой в руках, поющую &laquoMoon river» на пожарной лестнице.

В фильме, Холли и Пол крадут из магазина &laquoFive and Dime» пару пластмассовых масок для Хэллоуина. Маска Пола это пёс Хэклбэрри, якобы ссылка на &laquohuckleberry friend» (черничный друг) из песни &laquoMoon river&raquo.
x264 [info]: frame I:1010 Avg QP:18.92 size: 78566
---[NoImage] x264 [info]: frame P:37435 Avg QP:21.64 size: 21428
---[NoImage] x264 [info]: frame B:127128 Avg QP:23.51 size: 5385
---[NoImage] x264 [info]: consecutive B-frames: 1.3% 1.0% 4.5% 45.4% 18.9% 27.4% 1.2% 0.2% 0.1% 0.0% 0.0%
---[NoImage] x264 [info]: mb I I16..4: 3.4% 69.0% 27.5%
---[NoImage] x264 [info]: mb P I16..4: 0.8% 4.2% 2.0% P16..4: 49.2% 25.2% 13.0% 0.0% 0.0% skip: 5.6%
---[NoImage] x264 [info]: mb B I16..4: 0.1% 0.3% 0.1% B16..8: 35.8% 8.0% 1.4% direct: 3.5% skip:50.9% L0:41.4% L1:51.0% BI: 7.6%
---[NoImage] x264 [info]: 8x8 transform intra:61.6% inter:54.1%
---[NoImage] x264 [info]: coded y,uvDC,uvAC intra: 84.5% 86.4% 60.7% inter: 13.0% 20.6% 4.9%
---[NoImage] x264 [info]: i16 v,h,dc,p: 53% 13% 5% 30%
---[NoImage] x264 [info]: i8 v,h,dc,ddl,ddr,vr,hd,vl,hu: 11% 6% 3% 12% 17% 16% 14% 12% 10%
---[NoImage] x264 [info]: i4 v,h,dc,ddl,ddr,vr,hd,vl,hu: 11% 6% 2% 12% 17% 18% 14% 12% 8%
---[NoImage] x264 [info]: i8c dc,h,v,p: 50% 15% 23% 12%
---[NoImage] x264 [info]: Weighted P-Frames: Y:6.1% UV:3.3%
---[NoImage] x264 [info]: ref P L0: 42.4% 12.6% 19.5% 5.4% 5.6% 3.5% 4.0% 1.6% 2.0% 1.4% 1.8% 0.1% 0.0%
---[NoImage] x264 [info]: ref B L0: 75.5% 10.8% 4.8% 2.4% 1.7% 1.7% 1.3% 0.8% 0.5% 0.4%
---[NoImage] x264 [info]: ref B L1: 94.3% 5.7%
---[NoImage] x264 [info]: kb/s:1814.28
Формат : Matroska
Версия формата : Version 2
Размер файла : 2,18 Гбайт
Продолжительность : 1 ч. 55 м.
Общий поток : 2713 Кбит/сек
Дата кодирования : UTC 2012-02-20 10:45:20
Программа кодирования : mkvmerge v4.9.1 ('Ich will') сборка от Jul 11 2011 23:53:15
Библиотека кодирования : libebml v1.2.1 + libmatroska v1.1.1

Видео
Идентификатор : 1
Формат : AVC
Формат/Информация : Advanced Video Codec
Профиль формата : High@L4.1
Параметр CABAC формата : Нет
Параметр ReFrames формата : 11 кадров
Идентификатор кодека : V_MPEG4/ISO/AVC
Продолжительность : 1 ч. 55 м.
Битрейт : 1814 Кбит/сек
Ширина : 1024 пикселя
Высота : 576 пикселей
Соотношение сторон : 16:9
Частота кадров : 23,976 кадра/сек
Цветовое пространство : YUV
Субдискретизация насыщенности : 4:2:0
Битовая глубина : 8 бит
Тип развёртки : Прогрессивная
Бит/(Пиксели*Кадры) : 0.128
Размер потока : 1,42 Гбайт (65%)
Библиотека кодирования : x264 core 120 r2164 da19765
Настройки программы : cabac=0 / ref=11 / deblock=1:-2:-2 / analyse=0x3:0x113 / me=umh / subme=10 / psy=1 / psy_rd=1.05:0.10 / mixed_ref=1 / me_range=32 / chroma_me=1 / trellis=2 / 8x8dct=1 / cqm=0 / deadzone=21,11 / fast_pskip=0 / chroma_qp_offset=-3 / threads=6 / sliced_threads=0 / nr=0 / decimate=1 / interlaced=0 / bluray_compat=0 / constrained_intra=0 / bframes=10 / b_pyramid=2 / b_adapt=2 / b_bias=0 / direct=1 / weightb=1 / open_gop=0 / weightp=2 / keyint=230 / keyint_min=22 / scenecut=40 / intra_refresh=0 / rc=2pass / mbtree=0 / bitrate=1814 / ratetol=1.0 / qcomp=0.60 / qpmin=0 / qpmax=69 / qpstep=4 / cplxblur=20.0 / qblur=0.5 / ip_ratio=1.40 / pb_ratio=1.30 / aq=1:1.00

Аудио #1
Идентификатор : 2
Формат : AC-3
Формат/Информация : Audio Coding 3
Расширение режима : CM (complete main)
Идентификатор кодека : A_AC3
Продолжительность : 1 ч. 55 м.
Вид битрейта : Постоянный
Битрейт : 448 Кбит/сек
Каналы : 6 каналов
Расположение каналов : Front: L C R, Side: L R, LFE
Частота : 48,0 КГц
Битовая глубина : 16 бит
Метод сжатия : С потерями
Размер потока : 369 Мбайт (17%)
Язык : Russian

Аудио #2
Идентификатор : 3
Формат : AC-3
Формат/Информация : Audio Coding 3
Расширение режима : CM (complete main)
Идентификатор кодека : A_AC3
Продолжительность : 1 ч. 55 м.
Вид битрейта : Постоянный
Битрейт : 448 Кбит/сек
Каналы : 6 каналов
Расположение каналов : Front: L C R, Side: L R, LFE
Частота : 48,0 КГц
Битовая глубина : 16 бит
Метод сжатия : С потерями
Размер потока : 369 Мбайт (17%)
Язык : English

Текст #1
Идентификатор : 4
Формат : UTF-8
Идентификатор кодека : S_TEXT/UTF8
Идентификатор кодека/Информация : UTF-8 Plain Text
Язык : Russian

Текст #2
Идентификатор : 5
Формат : UTF-8
Идентификатор кодека : S_TEXT/UTF8
Идентификатор кодека/Информация : UTF-8 Plain Text
Язык : Russian

Текст #3
Идентификатор : 6
Формат : UTF-8
Идентификатор кодека : S_TEXT/UTF8
Идентификатор кодека/Информация : UTF-8 Plain Text
Заголовок : SDH
Язык : English
ПРИЯТНОГО ПРОСМОТРА!



Скачать Завтрак.у.Тиффани.Breakfast.at.Tiffany's.(Блейк.Эдвардс).[1961.драма.мелодрама.комедия.BDRip].[AVC].[MVO]+[AVO].torrent без регистрации
Золото ЗОЛОТАЯ РАЗДАЧА! СКАЧАННОЕ НЕ ЗАСЧИТЫВАЕТСЯ! Золото
Дата: Зарегистрирован   [ Тип: внутренний ] Как тут cкачать?
MAGNET ссылка
MAGNET ссылка


Скачать .torrent

12 KB

Статус: проверено DHT
Скачан: торрент - 163 раз, раздача полностью - 206 раз
Размер: 2,18 GB
Оценка:  4,7 (Голосов: 3)
Поблагодарили: 5
Поделиться ссылкой на эту раздачу с друзьями:
В контактеFacebookОдноклассникиTwitterLivejournalМой МирLiveinternet
 

 
Показать сообщения:    


Вы не можете начинать темы
Вы не можете отвечать на сообщения
Вы не можете редактировать свои сообщения
Вы не можете удалять свои сообщения
Вы не можете голосовать в опросах
Вы не можете прикреплять файлы к сообщениям
Вы можете скачивать файлы