Loading...
Error

Скачать Полиция майами - Отдел Нравов / Miami Vice [Полный 2-ой сезон](Томас Картер, Джон Левелин Мокси, Джорж Стенфорд Браун)[1985-1986, полицейский боевик, DVDRip] [DVO] торрент без регистрации

 
Статистика раздачи
Размер:  8,53 GB   |    Скачан:  327 раз
Сидов:  1  [  0 KB/s  ]  
 
Автор Сообщение

leon030982

[] 

Информация о фильме
Название: Полиция Майами: Отдел Нравов
Оригинальное название: Miami Vice
Год выхода: 1985 - 1986
Жанр: боевик, триллер, драма, криминал
Режиссер: Джон Николелла, Ричард Комптон, Дон Джонсон, Леон Ичасо, Верн Джиллам, Джим Джонстон, Дэвид Джексон, Колин Бакси, Вирджил В. Фогель, Пол Майкл Глейзер, Роб Коэн, Ян Элиасберг, Аарон Липстадт, Джеймс Куинн, Георг Стэнфорд Браун, Ли Х. Кацин, Дэвид Анспо, Абель Феррара, Майкл О`Херлихи, Марио ДиЛео, Гэбриэлль Бомонт, Пол Красны, Джордж Менделюк, Мишель Мэннинг, Русс Мейберри, Алан Маерсон
В ролях: Дон Джонсон, Филип Майкл Томас, Сандра Сантьяго, Оливия Браун, Майкл Толбот, Эдвард Джеймс Олмос, Джон Дил, Мартин Ферреро, Хулио Оскар Мечосо, Чарли Барнетт, Белинда Монтгомери, Шина Истон, Пэрррис Бакнер, Марио Эрнесто Санчез, Марк Маколей, Джо Хесс, Шэйн Ле Мар, Грегори Сьерра, Нед Эйзенберг, Энтони Короне, Альфредо Алварез Кальдерон

О фильме:
Сериал рассказывает о нелегкой работе полицейских Майами. Санни Крокетт и его напарник и одновременно близкий друг Рикардо Таббс расследуют жестокие убийства, изнасилования и ограбления. Полицейские всегда находят преступников и наркотики, защищают слабых, ездят на лучших машинах под популярную музыку и крутят романы с шикарными женщинами. Шедевр Майкла Манна, обретший культовый статус у "поколения MTV", но интересный и по сей день.

Серии на Английском, без Русского перевода № 1, 2, 15, 17, 19, 21, 22


Страна: США
Студия: Michael Mann Productions, Universal TV
Продолжительность: 22 х 00:49
Перевод: Профессиональный (двухголосый)

Файл
Кодек: XviD 1.2.0SMP
Качество: DVDRip
Видео: 512x384, 23.976 fps, ~870 kbps avg, 0.184 bit/pixel
Звук: 48 kHz, MPEG Layer 3, 2 ch, ~115 kbps avg
General
Complete name : Miami.Vice.s02e04.The.Dutch.Oven.avi
Format : AVI
Format/Info : Audio Video Interleave
File size : 350 MiB
Duration : 49mn 6s
Overall bit rate : 997 Kbps
Writing application : VirtualDubMod 1.5.4.1 (build 2178/release)
Writing library : VirtualDubMod build 2178/release

Video
ID : 0
Format : MPEG-4 Visual
Format profile : Advanced Simple@L5
Format settings, BVOP : 1
Format settings, QPel : No
Format settings, GMC : No warppoints
Format settings, Matrix : Default (H.263)
Muxing mode : Packed bitstream
Codec ID : XVID
Codec ID/Hint : XviD
Duration : 49mn 6s
Bit rate : 870 Kbps
Width : 512 pixels
Height : 384 pixels
Display aspect ratio : 4:3
Frame rate : 23.976 fps
Color space : YUV
Chroma subsampling : 4:2:0
Bit depth : 8 bits
Scan type : Progressive
Compression mode : Lossy
Bits/(Pixel*Frame) : 0.184
Stream size : 305 MiB (87%)
Writing library : XviD 1.2.0SMP (UTC 2006-01-08)

Audio
ID : 1
Format : MPEG Audio
Format version : Version 1
Format profile : Layer 3
Mode : Joint stereo
Mode extension : MS Stereo
Codec ID : 55
Codec ID/Hint : MP3
Duration : 49mn 6s
Bit rate mode : Variable
Bit rate : 115 Kbps
Nominal bit rate : 128 Kbps
Channel(s) : 2 channels
Sampling rate : 48.0 KHz
Compression mode : Lossy
Stream size : 40.4 MiB (12%)
Alignment : Aligned on interleaves
Interleave, duration : 24 ms (0.58 video frame)
Interleave, preload duration : 160 ms
Writing library : LAME3.97b
Encoding settings : -m j -V 4 -q 2 -lowpass 17 --abr 128



Скачать Полиция.майами.-.Отдел.Нравов.Miami.Vice.[Полный.2-ой.сезон](Томас.Картер.Джон.Левелин.Мокси.Джорж.Стенфорд.Браун)[1985-1986.полицейский.боевик.DVDRip].[DVO].torrent без регистрации
Золото ЗОЛОТАЯ РАЗДАЧА! СКАЧАННОЕ НЕ ЗАСЧИТЫВАЕТСЯ! Золото
Дата: Зарегистрирован   [ Тип: внутренний ] Как тут cкачать?
MAGNET ссылка
MAGNET ссылка


Скачать .torrent

46 KB

Статус: проверено DHT
Скачан: торрент - 327 раз, раздача полностью - 4 раз
Размер: 8,53 GB
Оценка:  - (Голосов: 0)
Поблагодарили: 2
Поделиться ссылкой на эту раздачу с друзьями:
В контактеFacebookОдноклассникиTwitterLivejournalМой МирLiveinternet
 

 
Показать сообщения:    


Вы не можете начинать темы
Вы не можете отвечать на сообщения
Вы не можете редактировать свои сообщения
Вы не можете удалять свои сообщения
Вы не можете голосовать в опросах
Вы не можете прикреплять файлы к сообщениям
Вы можете скачивать файлы