Loading...
Error

Скачать Теория заговора / Conspiracy Theory (Ричард Доннер) [1997, боевик, триллер, мелодрама, криминал, детектив, DVDRip] [Dub] торрент без регистрации

 
Статистика раздачи
Размер:  1,37 GB   |    Скачан:  142 раза
Сидов:  1  [  0 KB/s  ]  
 
Автор Сообщение

Marsianka

[] 

Информация о фильме
Название: Теория заговора
Оригинальное название: Conspiracy Theory
Год выхода: 1997
Жанр: боевик, триллер, мелодрама, криминал, детектив
Режиссер: Ричард Доннер
В ролях: Мэл Гибсон, Джулия Робертс, Патрик Стюарт, Силк Козарт, Стив Кэхэн, Терри Александр, Алекс МакАртур, Род МакЛахлан, Майкл Поттс, Джим Стерлинг

О фильме:
Джерри Флетчер кругом подозревает заговоры! Он владеет смертельно опасной информацией. Враги предпочли бы видеть Джерри мертвым. В этой ситуации она единственная, кому он может доверять

Он таксист и параноик. Она прокурор, которая отказывается ему верить. Теперь они вместе вынуждены выживать Одно из его сумасшедших предположений уже подтвердилось!

Формат : AVI
Формат/Информация : Audio Video Interleave
Размер файла : 1.37 GiB
Продолжительность : 2h 9mn
Общий поток : 1 508 Kbps
Название фильма : Teoriya.zagovora.rus-eng.xvid.ac3.dvdrip.from.DVD5.by.alex5.via.torrent.e2k.ru.by.soperedi
Часть/Положение : 1
Часть/Всего : 1
Кодирование произвёл : soperedi / soperedi
Дата мастеринга : 21-09-2005
Программа кодирования : VirtualDubMod 1.5.4.1 (build 2178/release) VirtualDubMod build 2178/release
Примечание : soperedi
IMIU : http://netlab.e2k.ru/forum/index.php?showtopic=53380

Video
Идентификатор : 0
Формат : MPEG-4 Visual
Профиль формата : Advanced Simple@L5
Параметр BVOP формата : 1
Параметр QPel формата : No
Параметр GMC формата : No warppoints
Параметр матрицы формата : Default (H.263)
Режим смешивания : Packed bitstream
Идентификатор кодека : XVID
Идентификатор кодека/Подсказка : XviD
Продолжительность : 2h 9mn
Битрейт : 731 Kbps
Ширина : 608 pixels
Высота : 256 pixels
Соотношение сторон : 2.40:1
Частота кадров : 25.000 fps
Цветовое пространство : YUV
Подвыборка цветности : 4:2:0
Битовая глубина : 8 bits
Тип развёртки : Progressive
Метод сжатия : Lossy
Бит/(Пиксели*Кадры) : 0.188
Размер потока : 678 MiB (48%)
Библиотека кодирования : XviD 1.1.0 Beta2 (UTC 2005-04-04)

Audio #1
Идентификатор : 1
Формат : AC-3
Формат/Информация : Audio Coding 3
Расширение режима : CM (complete main)
Идентификатор кодека : 2000
Продолжительность : 2h 9mn
Вид битрейта : Constant
Битрейт : 384Kbps
Каналы : 6 channels
Расположение каналов : Front: L C R, Side: L R, LFE
Частота : 48.0 KHz
Битовая глубина : 16 bits
Метод сжатия : Lossy
Задержка видео : 17ms
Размер потока : 356 MiB (25%)
Выравнивание : Split accross interleaves
Продолжительность промежутка : 80 ms (2.00 video frames)
Время предзагрузки промежутка : 500 ms
Язык : un / Russian

Audio #2
Идентификатор : 2
Формат : AC-3
Формат/Информация : Audio Coding 3
Расширение режима : CM (complete main)
Идентификатор кодека : 2000
Продолжительность : 2h 9mn
Вид битрейта : Constant
Битрейт : 384 Kbps
Каналы : 6 channels
Расположение каналов : Front: L C R, Side: L R, LFE
Частота : 48.0 KHz
Битовая глубина : 16 bits
Метод сжатия : Lossy
Задержка видео : 16ms
Размер потока : 356 MiB (25%)
Выравнивание : Split accross interleaves
Продолжительность промежутка : 80 ms (2.00 video frames)
Время предзагрузки промежутка : 500 ms
Язык : English
Страна: США
Продолжительность: 2:09:46
Перевод: Дубляж

Файл
Кодек: Xvid
Качество: DVDRip
Видео: 608х256, 731кб/с, 25fps
Звук:
Audio #1: AC-3, 2h 9mn, 384Kbps, 48.0 KHz, 16 bits
Audio #2: AC-3, 2h 9mn, 384Kbps, 48.0 KHz, 16 bits



Скачать Теория.заговора.Conspiracy.Theory.(Ричард.Доннер).[1997.боевик.триллер.мелодрама.криминал.детектив.DVDRip].[Dub].torrent без регистрации
Золото ЗОЛОТАЯ РАЗДАЧА! СКАЧАННОЕ НЕ ЗАСЧИТЫВАЕТСЯ! Золото
Дата: Зарегистрирован   [ Тип: внутренний ] Как тут cкачать?
MAGNET ссылка
MAGNET ссылка


Скачать .torrent

14 KB

Статус: проверено DHT
Скачан: торрент - 142 раз, раздача полностью - 52 раз
Размер: 1,37 GB
Оценка:  5 (Голосов: 1)
Поблагодарили: 4
Поделиться ссылкой на эту раздачу с друзьями:
В контактеFacebookОдноклассникиTwitterLivejournalМой МирLiveinternet
 

 
Показать сообщения:    


Вы не можете начинать темы
Вы не можете отвечать на сообщения
Вы не можете редактировать свои сообщения
Вы не можете удалять свои сообщения
Вы не можете голосовать в опросах
Вы не можете прикреплять файлы к сообщениям
Вы можете скачивать файлы