Loading...
Error

Скачать Подозреваемый / Person of Interest (Сезон 1 полный) (Дэвид Семел) [2011, Драма, Криминал, HDTV] [1080i] [LostFilm 5.1] Original + rus sub торрент без регистрации

 
Статистика раздачи
Размер:  100,61 GB   |    Скачан:  162 раза
Сидов:  1  [  0 KB/s  ]  
 
Автор Сообщение

leon030982

[] 


Подозреваемый / Person of Interest / HDTV 1080i
Год выпуска: 2011-2012
Страна: США
Жанр: Драма, Криминал
Продолжительность: 43:50
Перевод: Профессиональный многоголосый закадровый (Lostfilm)
Русские субтитры: есть (michaelemerson)
Субтитры: Английские, Русские
Режиссёр: Ричард Дж. Льюис, Дэвид Семел

В ролях: Джеймс Кэвизел, Майкл Эмерсон, Stanislav Shkilnyi, Узиманн, Тараджи П. Хенсон, Кевин Чэпмен, Куртеней Тейлор, Крис Чок, Жермен Кроуфорд, Брайан Д’Арси Джеймс

Описание: Предполагаемо погибший бывший агент ЦРУ Риз объединяется с таинственным миллионером чтобы предотвращать преступления. Подготовка Риза в проведении операций под прикрытием привлекает внимание миллионера Финча, гения-программиста, который изобрел программу, позволяющую предсказывать преступные склонности людей на базе анализа поведения. Используя последние достижения техники, эти двое часто преступают закон, используя навыки Риза и бесконечное богатство Финча, и останавливают преступников еще до совершения преступления.

12 января 2012 г. сериал Person Of Interest получил премию People’s Choice Awards. По результатам общенационального интернет-голосованием Person Of Interest стал победителем в категории «Любимая новая драма», опередив все новинки 2011 года.

Доп. информация: Русская звуковая дорожка (LostFilm) сделана путем наложения чистого голоса озвучивателей на центральный канал оригинальной дорожки. Качество идентично английской звуковой дорожке.
Качество: HDTV (чистый, не пережатый стрим с CBS HD)
Формат: MKV
Видео кодек: MPEG2
Аудио кодек: AC3
Видео: MPEG-2 / 1920x1080i / 29.970 fps / ~14900 Kbps / 0.120 bit/pixel
Аудио 1: Russian: Dolby Digital 5.1; 48 kHz; 384 kbps - (LostFilm)
Аудио 2: English: Dolby Digital 5.1; 48 kHz; 384 kbps
Субтитры 1: Русские (michaelemerson.ru)
Субтитры 2: Английские
Chapters : 7 глав.
Релиз от: by CEZAR
Video-Capture: TrollHD

Работа со звуком: CEZAR
Released by CEZAR
Эпизод 01 — Пилот (Pilot)
Эпизод 02 — Призраки (Ghosts)
Эпизод 03 — Перепостановка задачи (Mission Creep)
Эпизод 04 — Исцели себя сам (Cura Te Ipsum)
Эпизод 05 — Правосудие (Judgment)
Эпизод 06 — Исправление (The Fix)
Эпизод 07 — Свидетель (Witness)
Эпизод 08 — Недруг (Foe)
Эпизод 09 — Убрать Картер (Get Carter)
Эпизод 10 — Обвал номеров (Number Crunch)
Эпизод 11 — Смотритель (Super)
Эпизод 12 — Наследие (Legacy)
Эпизод 13 — Основная причина (Root Cause)
Эпизод 14 — Волк и детеныш (Wolf and Cub)
Эпизод 15 — Синий код (Blue Code)
Эпизод 16 — Риск (Risk)
Эпизод 17 — Нежно-голубой (Baby Blue)
Эпизод 18 — Кризис личности (Identity Crisis)
General
Unique ID : 204955070452808921890512649845653595924
(0x9A30E926833B6D5C974E4C6CAF9F6714)
Complete name : Person.of.Interest.S01E01.1080i.HDTV.DD5.1.MPEG2
-CEZAR.mkv
Format : Matroska
Format version : Version 2
File size : 4.93 GiB
Duration : 44mn 1s
Overall bit rate mode : Variable
Overall bit rate : 16.0 Mbps
Encoded date : UTC 2012-01-14 08:20:12
Writing application : mkvmerge v5.2.1 ('A Far Off Place') built on Jan 2 2012
23:21:10
Writing library : libebml v1.2.3 + libmatroska v1.3.0
Video
ID : 1
Format : MPEG Video
Format version : Version 2
Format profile : Main@High
Format settings, BVOP : Yes
Format settings, Matrix : Custom
Codec ID : V_MPEG2
Codec ID/Info : MPEG 1 or 2 Video
Duration : 44mn 1s
Bit rate mode : Variable
Bit rate : 14.9 Mbps
Maximum bit rate : 17.1 Mbps
Width : 1 920 pixels
Height : 1 080 pixels
Display aspect ratio : 16:9
Frame rate : 59.940 fps
Original frame rate : 29.970 fps
Standard : Component
Color space : YUV
Chroma subsampling : 4:2:0
Bit depth : 8 bits
Scan type : Interlaced
Scan order : Top Field First
Compression mode : Lossy
Bits/(Pixel*Frame) : 0.120
Stream size : 4.59 GiB (93%)
Default : Yes
Forced : No
Color primaries : BT.709
Transfer characteristics : BT.709
Matrix coefficients : BT.709
Audio #1
ID : 2
Format : AC-3
Format/Info : Audio Coding 3
Mode extension : CM (complete main)
Codec ID : A_AC3
Duration : 44mn 1s
Bit rate mode : Constant
Bit rate : 384 Kbps
Channel(s) : 6 channels
Channel positions : Front: L C R, Side: L R, LFE
Sampling rate : 48.0 KHz
Bit depth : 16 bits
Compression mode : Lossy
Stream size : 121 MiB (2%)
Title : Lostfilm
Language : Russian
Default : Yes
Forced : No
Audio #2
ID : 3
Format : AC-3
Format/Info : Audio Coding 3
Mode extension : CM (complete main)
Codec ID : A_AC3
Duration : 44mn 1s
Bit rate mode : Constant
Bit rate : 384 Kbps
Channel(s) : 6 channels
Channel positions : Front: L C R, Side: L R, LFE
Sampling rate : 48.0 KHz
Bit depth : 16 bits
Compression mode : Lossy
Stream size : 121 MiB (2%)
Language : English
Default : No
Forced : No
Text #1
ID : 4
Format : UTF-8
Codec ID : S_TEXT/UTF8
Codec ID/Info : UTF-8 Plain Text
Language : Russian
Default : No
Forced : No
Text #2
ID : 5
Format : UTF-8
Codec ID : S_TEXT/UTF8
Codec ID/Info : UTF-8 Plain Text
Language : English
Default : No
Forced : No
Menu
00:00:00.000 : en:Chapter 1
00:01:46.000 : en:Chapter 2
00:12:03.200 : en:Chapter 3
00:18:27.040 : en:Chapter 4
00:25:15.696 : en:Chapter 5
00:34:54.528 : en:Chapter 6
00:43:31.900 : en:Chapter 7
Внимание! Первый сезон закончен!



Скачать Подозреваемый.Person.of.Interest.(Сезон.1.полный).(Дэвид.Семел).[2011.Драма.Криминал.HDTV].[1080i].[LostFilm.5.1].Original.+.rus.sub.torrent без регистрации
Золото ЗОЛОТАЯ РАЗДАЧА! СКАЧАННОЕ НЕ ЗАСЧИТЫВАЕТСЯ! Золото
Дата: Зарегистрирован   [ Тип: внутренний ] Как тут cкачать?
MAGNET ссылка
MAGNET ссылка


Скачать .torrent

254 KB

Статус: проверено DHT
Скачан: торрент - 162 раз, раздача полностью - 1 раз
Размер: 100,61 GB
Оценка:  5 (Голосов: 1)
Поблагодарили: 2
Поделиться ссылкой на эту раздачу с друзьями:
В контактеFacebookОдноклассникиTwitterLivejournalМой МирLiveinternet
 

 
Показать сообщения:    


Вы не можете начинать темы
Вы не можете отвечать на сообщения
Вы не можете редактировать свои сообщения
Вы не можете удалять свои сообщения
Вы не можете голосовать в опросах
Вы не можете прикреплять файлы к сообщениям
Вы можете скачивать файлы