Loading...
Error

Скачать Новая земля (Александр Мельник) [2008, фантастика, боевик, HDRip] торрент без регистрации

 
Статистика раздачи
Размер:  745 MB   |    Скачан:  136 раз
Сидов:  1  [  0 KB/s  ]  
 
Автор Сообщение

МихаНЕзатор

[] 

Новая земля

Жанр: фантастика, боевик
Год выпуска: 2008
Продолжительность: 01:59:48
Режиссёр: Александр Мельник

В ролях: Константин Лавроненко, Андрей Феськов, Марат Башаров, Павел Сборщиков, Александр Самойленко, Сергей Колтаков, Евгений Титов, Владислав Абашин, Заза Чичинадзе, Виктор Жалсанов и другие

Описание: Во всем мире отменена смертная казнь. Тюрьмы переполнены. Всё больше средств требуется для содержания осужденных на пожизненное заключение. Международные организации принимают решение о проведении эксперимента. Россия предоставляет необитаемый остров на севере, где обустраивается небольшое поселение. Туда вывозится первая экспериментальная партия заключенных из России. Им предлагают начать новую жизнь, самим устроить свое общество. Однако поселенцы начинают жить по закону «Последний — мёртвый».

Качество видео: HDRip
Формат видео: AVI
Видео: Xvid 656x288 23.98fps 731Kbps 0.16bit/pixel
Аудио: MPEG Audio Layer 3 48000Hz stereo 128Kbps

Полное имя : F:\Novaja zemlia (2008) - HDRip by TaniaVGTU.avi
Формат : AVI
Формат/Информация : Audio Video Interleave
Размер файла : 745 Мбайт
Продолжительность : 1 ч. 59 м.
Общий поток : 869 Кбит/сек
Программа кодирования : VirtualDubMod 1.5.10.2 (build 2540/release)
Библиотека кодирования : VirtualDubMod build 2540/release
Видео
Идентификатор : 0
Формат : MPEG-4 Visual
Профиль формата : Advanced Simple@L5
Параметр BVOP формата : 2
Параметр QPel формата : Нет
Параметр GMC формата : Без точки перехода
Параметр матрицы формата : Default (H.263)
Идентификатор кодека : XVID
Идентификатор кодека/Подсказка : XviD
Продолжительность : 1 ч. 59 м.
Битрейт : 732 Кбит/сек
Ширина : 656 пикселей
Высота : 288 пикселей
Соотношение сторон : 2,25:1
Частота кадров : 23,976 кадра/сек
Цветовое пространство : YUV
Субдискретизация насыщенности : 4:2:0
Битовая глубина : 8 бит
Тип развёртки : Прогрессивная
Метод сжатия : С потерями
Бит/(Пиксели*Кадры) : 0.162
Размер потока : 627 Мбайт (84%)
Библиотека кодирования : XviD 1.2.1 (UTC 2008-12-04)
Аудио
Идентификатор : 1
Формат : MPEG Audio
Версия формата : Version 1
Профиль формата : Layer 3
Идентификатор кодека : 55
Идентификатор кодека/Подсказка : MP3
Продолжительность : 1 ч. 59 м.
Вид битрейта : Постоянный
Битрейт : 128 Кбит/сек
Каналы : 2 канала
Частота : 48,0 КГц
Метод сжатия : С потерями
Размер потока : 110 Мбайт (15%)
Выравнивание : Соединение по промежуткам
Продолжительность промежутка : 42 мс. (1,00 видеокадр)
Время предзагрузки промежутка : 504 мс.
Библиотека кодирования : LAME3.98r
Настройки программы : -m s -V 4 -q 2 -lowpass 17 -b 128



Скачать Новая.земля.(Александр.Мельник).[2008.фантастика.боевик.HDRip].torrent без регистрации
Золото ЗОЛОТАЯ РАЗДАЧА! СКАЧАННОЕ НЕ ЗАСЧИТЫВАЕТСЯ! Золото
Дата: Зарегистрирован   [ Тип: внутренний ] Как тут cкачать?
MAGNET ссылка
MAGNET ссылка


Скачать .torrent

15 KB

Статус: проверено DHT
Скачан: торрент - 136 раз, раздача полностью - 63 раз
Размер: 745 MB
Оценка:  - (Голосов: 0)
Поблагодарили: 1
Поделиться ссылкой на эту раздачу с друзьями:
В контактеFacebookОдноклассникиTwitterLivejournalМой МирLiveinternet
 

 
Показать сообщения:    


Вы не можете начинать темы
Вы не можете отвечать на сообщения
Вы не можете редактировать свои сообщения
Вы не можете удалять свои сообщения
Вы не можете голосовать в опросах
Вы не можете прикреплять файлы к сообщениям
Вы можете скачивать файлы