Loading...
Error

Скачать Сквозь горизонт / Event Horizon (Пол У. С. Андерсон) [1997, ужасы, фантастика, триллер, детектив, BDRip-AVC] [MVO]+[DVO] торрент без регистрации

 
Статистика раздачи
Размер:  2,18 GB   |    Скачан:  187 раз

Полного источника не было: 25 минут

 
Автор Сообщение

Marsianka

[] 

Сквозь горизонт / Event Horizon (1997) BDRip-AVC от PowerTracker

Жанр: ужасы, фантастика, триллер, детектив
Страна: США , Великобритания
Режиссер: Пол У. С. Андерсон
В ролях: Лоуренс Фишберн, Сэм Нилл, Ноа Хантли, Ричард Тимоти Джоунс, Холли Чэнт, Джоэли Ричардсон, Джейсон Айзэкс, Барклэй Райт, Питер Мэринкер, Роберт Йезек, Шон Пертви, Кэтлин Куинлэн, Джек Ноузуорти

Сюжет фильма: 2047 год. Спасательный космический корабль послан к границе Солнечной системы с целью выяснить, что произошло с экипажем первого звездолета "Event Horizon", созданного для путешествий со сверхсветовой скоростью и бесследно исчезнувшего при первом же полете. Внезапно появившийся из ниоткуда, он был обнаружен возле далекой планеты Нептун. Шаг за шагом находя ответы на свои вопросы, команда начинает поддаваться чувству жуткого страха и ужаса, глубина которых соизмерима только с бескрайними просторами космоса...

Мировая премьера: 15 августа 1997



Продолжительность: 01:35:57
Качество видео: BDRip-AVC
Видео: кодек: x264, размер кадра: 1022x436, битрейт: 1904 кб/с, bit/pixel: 0.178
Аудио #1: язык: Русский , перевод: профессиональный многоголосый закадровый (СуперБит), кодек: AC3 5.1, битрейт: 384.00 кб/с
Аудио #2: язык: Русский , перевод: профессиональный двухголосый закадровый (Tycoon), кодек: AC3 5.1, битрейт: 384.00 кб/с
Аудио #3: язык: Украинский , перевод: профессиональный двухголосый закадровый (ICTV), кодек: AC3 5.1, битрейт: 384.00 кб/с
Аудио #4: язык: Английский , перевод: оригинал, кодек: AC3 2.0, битрейт: 192.00 кб/с
Субтитры: тип: вшитые отключаемые, формат: SRT, язык: Русский (Киномания, Tycoon), Английский

&
Общее
Уникальный идентификатор : 226374190095974037537703565205128617966 (0xAA4E154848D755C9857E349303E81FEE)
Полное имя : D:Event Horizon.1987.BDRip-AVC.PT.mkv
Формат : Matroska
Версия формата : Version 2
Размер файла : 2,18 Гбайт
Продолжительность : 1 ч. 35 м.
Общий поток : 3248 Кбит/сек
Название фильма : Сквозь горизонт / Горизонт событий / Event Horizon (1997) BDRip-AVC rip by rulya74
Дата кодирования : UTC 2012-02-23 21:20:37
Программа кодирования : mkvmerge v5.2.1 ('A Far Off Place') built on Jan 2 2012 23:21:10
Библиотека кодирования : libebml v1.2.3 + libmatroska v1.3.0

Видео
Идентификатор : 1
Формат : AVC
Формат/Информация : Advanced Video Codec
Профиль формата : High@L4.1
Параметр CABAC формата : Да
Параметр ReFrames формата : 9 кадров
Идентификатор кодека : V_MPEG4/ISO/AVC
Продолжительность : 1 ч. 35 м.
Битрейт : 1904 Кбит/сек
Ширина : 1022 пикселя
Высота : 436 пикселей
Соотношение сторон : 2,35:1
Частота кадров : 23,976 кадра/сек
Цветовое пространство : YUV
Субдискретизация насыщенности : 4:2:0
Битовая глубина : 8 бит
Тип развёртки : Прогрессивная
Бит/(Пиксели*Кадры) : 0.178
Размер потока : 1,23 Гбайт (57%)
Библиотека кодирования : x264 core 120 r2164 da19765
Настройки программы : cabac=1 / ref=9 / deblock=1:-1:-1 / analyse=0x3:0x113 / me=umh / subme=9 / psy=1 / psy_rd=1.00:0.00 / mixed_ref=1 / me_range=32 / chroma_me=1 / trellis=2 / 8x8dct=1 / cqm=0 / deadzone=21,11 / fast_pskip=1 / chroma_qp_offset=-2 / threads=3 / sliced_threads=0 / nr=0 / decimate=1 / interlaced=0 / bluray_compat=0 / constrained_intra=0 / bframes=9 / b_pyramid=2 / b_adapt=1 / b_bias=0 / direct=3 / weightb=1 / open_gop=0 / weightp=2 / keyint=240 / keyint_min=22 / scenecut=40 / intra_refresh=0 / rc=2pass / mbtree=0 / bitrate=1904 / ratetol=1.0 / qcomp=0.60 / qpmin=10 / qpmax=51 / qpstep=4 / cplxblur=20.0 / qblur=0.5 / ip_ratio=1.40 / pb_ratio=1.30 / aq=1:1.00
Default : Да
Forced : Нет

Аудио #1
Идентификатор : 2
Формат : AC-3
Формат/Информация : Audio Coding 3
Расширение режима : CM (complete main)
Идентификатор кодека : A_AC3
Продолжительность : 1 ч. 35 м.
Вид битрейта : Постоянный
Битрейт : 384 Кбит/сек
Каналы : 6 каналов
Расположение каналов : Front: L C R, Side: L R, LFE
Частота : 48,0 КГц
Битовая глубина : 16 бит
Метод сжатия : С потерями
Размер потока : 264 Мбайт (12%)
Заголовок : Многоголосый (СуперБит)
Язык : Russian
Default : Да
Forced : Нет

Аудио #2
Идентификатор : 3
Формат : AC-3
Формат/Информация : Audio Coding 3
Расширение режима : CM (complete main)
Идентификатор кодека : A_AC3
Продолжительность : 1 ч. 35 м.
Вид битрейта : Постоянный
Битрейт : 384 Кбит/сек
Каналы : 6 каналов
Расположение каналов : Front: L C R, Side: L R, LFE
Частота : 48,0 КГц
Битовая глубина : 16 бит
Метод сжатия : С потерями
Размер потока : 264 Мбайт (12%)
Заголовок : Двухголосый (Tycoon)
Язык : Russian
Default : Нет
Forced : Нет

Аудио #3
Идентификатор : 4
Формат : AC-3
Формат/Информация : Audio Coding 3
Расширение режима : CM (complete main)
Идентификатор кодека : A_AC3
Продолжительность : 1 ч. 35 м.
Вид битрейта : Постоянный
Битрейт : 384 Кбит/сек
Каналы : 6 каналов
Расположение каналов : Front: L C R, Side: L R, LFE
Частота : 48,0 КГц
Битовая глубина : 16 бит
Метод сжатия : С потерями
Размер потока : 264 Мбайт (12%)
Заголовок : Двухголосый (ICTV)
Язык : Ukrainian
Default : Нет
Forced : Нет

Аудио #4
Идентификатор : 5
Формат : AC-3
Формат/Информация : Audio Coding 3
Расширение режима : CM (complete main)
Идентификатор кодека : A_AC3
Продолжительность : 1 ч. 35 м.
Вид битрейта : Постоянный
Битрейт : 192 Кбит/сек
Каналы : 2 канала
Расположение каналов : Front: L R
Частота : 48,0 КГц
Битовая глубина : 16 бит
Метод сжатия : С потерями
Размер потока : 132 Мбайт (6%)
Заголовок : Оригинал
Язык : English
Default : Нет
Forced : Нет

Текст #1
Идентификатор : 6
Формат : UTF-8
Идентификатор кодека : S_TEXT/UTF8
Идентификатор кодека/Информация : UTF-8 Plain Text
Заголовок : Киномания
Язык : Russian
Default : Нет
Forced : Нет

Текст #2
Идентификатор : 7
Формат : UTF-8
Идентификатор кодека : S_TEXT/UTF8
Идентификатор кодека/Информация : UTF-8 Plain Text
Заголовок : Tycoon
Язык : Russian
Default : Нет
Forced : Нет

Текст #3
Идентификатор : 8
Формат : UTF-8
Идентификатор кодека : S_TEXT/UTF8
Идентификатор кодека/Информация : UTF-8 Plain Text
Язык : English
Default : Нет
Forced : Нет



Скачать Сквозь.горизонт.Event.Horizon.(Пол.У.С.Андерсон).[1997.ужасы.фантастика.триллер.детектив.BDRip-AVC].[MVO]+[DVO].torrent без регистрации
Золото ЗОЛОТАЯ РАЗДАЧА! СКАЧАННОЕ НЕ ЗАСЧИТЫВАЕТСЯ! Золото
Дата: Зарегистрирован   [ Тип: внутренний ] Как тут cкачать?
MAGNET ссылка
MAGNET ссылка


Скачать .torrent

11 KB

Статус: проверено DHT
Скачан: торрент - 187 раз, раздача полностью - 204 раз
Размер: 2,18 GB
Оценка:  4,8 (Голосов: 4)
Поблагодарили: 6
Поделиться ссылкой на эту раздачу с друзьями:
В контактеFacebookОдноклассникиTwitterLivejournalМой МирLiveinternet
 

 
Показать сообщения:    


Вы не можете начинать темы
Вы не можете отвечать на сообщения
Вы не можете редактировать свои сообщения
Вы не можете удалять свои сообщения
Вы не можете голосовать в опросах
Вы не можете прикреплять файлы к сообщениям
Вы можете скачивать файлы