Loading...
Error

Скачать Патриоты / Indigènes / Days of Glory (Рашид Бушареб) [2006, боевик, драма, военный, BDRip] [AVC] [MVO] торрент без регистрации

 
Статистика раздачи
Размер:  2,18 GB   |    Скачан:  127 раз
Сидов:  1  [  0 KB/s  ]  
 
Автор Сообщение

Marsianka

[] 

Патриоты / Indigènes / Days of Glory (2006) BDRip-AVC от PowerTracker

Жанр: [img]боевик, драма, военный[/img]
Страна: Франция , Алжир , Бельгия , Марокко
Режиссер: Рашид Бушареб
В ролях: Жамель Деббуз, Сами Насери, Рошди Зем, Сами Буажила, Бернар Бланкан, Матье Симоне, Assaad Bouab, Бенуа Жирос, Мелани Лоран, Антуан Чаппи

Сюжет фильма: 1943 год. Эти французы никогда не были во Франции, однако перед лицом войны Саид, Абделькадер, Мессауд и Яссир присоединяются к французской армии, чтобы защищать свою Родину от нацистов вместе со 130-ю тысячами других потенциальных жителей страны.

Эти герои были надолго забыты историей, но подвиг не стерся из памяти людей совсем. Их силами были одержаны победы в Италии, Провансе и Восге, а главный бой ожидал воинов в маленькой деревушке Эльзас, где четверым храбрецам пришлось в одиночку противостоять целому батальону немецких захватчиков.


Мировая премьера: 25 мая 2006



Продолжительность: 02:03:38
Качество видео: BDRip-AVC
Видео: кодек: x264, размер кадра: 1022x434, битрейт: 2072 кб/с, bit/pixel: 0.195
Аудио: язык: Русский , перевод: профессиональный многоголосый закадровый, кодек: AC3 5.1, битрейт: 448.00 кб/с

&
Общее
Уникальный идентификатор : 225915084669722373379814924348088321001 (0xA9F5A9A32156108E95E236AC08CB03E9)
Полное имя : D:Indig�nes.2006.BDRip-AVC.PT.mkv
Формат : Matroska
Версия формата : Version 2
Размер файла : 2,18 Гбайт
Продолжительность : 2 ч. 3 м.
Общий поток : 2520 Кбит/сек
Название фильма : Патриоты / Indig�nes / Days of Glory (2006) BDRip-AVC rip by rulya74
Дата кодирования : UTC 2012-02-25 06:17:11
Программа кодирования : mkvmerge v5.2.1 ('A Far Off Place') built on Jan 2 2012 23:21:10
Библиотека кодирования : libebml v1.2.3 + libmatroska v1.3.0

Видео
Идентификатор : 1
Формат : AVC
Формат/Информация : Advanced Video Codec
Профиль формата : High@L4.1
Параметр CABAC формата : Да
Параметр ReFrames формата : 11 кадров
Идентификатор кодека : V_MPEG4/ISO/AVC
Продолжительность : 2 ч. 3 м.
Битрейт : 2072 Кбит/сек
Ширина : 1022 пикселя
Высота : 434 пикселя
Соотношение сторон : 2,35:1
Частота кадров : 24,000 кадра/сек
Цветовое пространство : YUV
Субдискретизация насыщенности : 4:2:0
Битовая глубина : 8 бит
Тип развёртки : Прогрессивная
Бит/(Пиксели*Кадры) : 0.195
Размер потока : 1,75 Гбайт (80%)
Библиотека кодирования : x264 core 120 r2164 da19765
Настройки программы : cabac=1 / ref=11 / deblock=1:-1:-1 / analyse=0x3:0x113 / me=umh / subme=9 / psy=1 / psy_rd=1.00:0.00 / mixed_ref=1 / me_range=32 / chroma_me=1 / trellis=2 / 8x8dct=1 / cqm=0 / deadzone=21,11 / fast_pskip=1 / chroma_qp_offset=-2 / threads=4 / sliced_threads=0 / nr=0 / decimate=1 / interlaced=0 / bluray_compat=0 / constrained_intra=0 / bframes=10 / b_pyramid=2 / b_adapt=1 / b_bias=0 / direct=3 / weightb=1 / open_gop=0 / weightp=2 / keyint=240 / keyint_min=22 / scenecut=40 / intra_refresh=0 / rc=2pass / mbtree=0 / bitrate=2072 / ratetol=1.0 / qcomp=0.60 / qpmin=10 / qpmax=51 / qpstep=4 / cplxblur=20.0 / qblur=0.5 / ip_ratio=1.40 / pb_ratio=1.30 / aq=1:1.00
Default : Да
Forced : Нет

Аудио
Идентификатор : 2
Формат : AC-3
Формат/Информация : Audio Coding 3
Расширение режима : CM (complete main)
Идентификатор кодека : A_AC3
Продолжительность : 2 ч. 3 м.
Вид битрейта : Постоянный
Битрейт : 448 Кбит/сек
Каналы : 6 каналов
Расположение каналов : Front: L C R, Side: L R, LFE
Частота : 48,0 КГц
Битовая глубина : 16 бит
Метод сжатия : С потерями
Размер потока : 396 Мбайт (18%)
Заголовок : Многоголосый закадровый [R5]
Язык : Russian
Default : Да
Forced : Нет



Скачать Патриоты.Indigènes.Days.of.Glory.(Рашид.Бушареб).[2006.боевик.драма.военный.BDRip].[AVC].[MVO].torrent без регистрации
Золото ЗОЛОТАЯ РАЗДАЧА! СКАЧАННОЕ НЕ ЗАСЧИТЫВАЕТСЯ! Золото
Дата: Зарегистрирован   [ Тип: внутренний ] Как тут cкачать?
MAGNET ссылка
MAGNET ссылка


Скачать .torrent

11 KB

Статус: проверено DHT
Скачан: торрент - 127 раз, раздача полностью - 61 раз
Размер: 2,18 GB
Оценка:  - (Голосов: 0)
Поблагодарили: 1
Поделиться ссылкой на эту раздачу с друзьями:
В контактеFacebookОдноклассникиTwitterLivejournalМой МирLiveinternet
 

 
Показать сообщения:    


Вы не можете начинать темы
Вы не можете отвечать на сообщения
Вы не можете редактировать свои сообщения
Вы не можете удалять свои сообщения
Вы не можете голосовать в опросах
Вы не можете прикреплять файлы к сообщениям
Вы можете скачивать файлы