Loading...
Error

Скачать Летающая парочка / The Flying Deuces (А. Эдвард Сазерлэнд) [1939, Комедия, DVDRip] [MVO] торрент без регистрации

 
Статистика раздачи
Размер:  700 MB   |    Скачан:  153 раза
Сидов:  1  [  0 KB/s  ]  
 
Автор Сообщение

Marsianka

[] 

Летающая парочка / The Flying Deuces

&laquoHERE'S HYSTERICAL HISTORY!»

Страна: США
Жанр: Комедия
Год выпуска: 1939
Продолжительность: 01:08:18
Перевод: Профессиональный (многоголосый, закадровый) + Оригинал
Субтитры: нет

Режиссёр: А. Эдвард Сазерлэнд / A. Edward Sutherland
В ролях: Стэн Лорел, Оливер Харди, Джин Паркер, Реджинальд Гардинер, Жан Дел Вэл, Джеймс Финлейсон, Чарльз Миддлтон, Крэйн Уитли, Моника Бэннистер, Бонни Бэннон

Описание фильма: Оливер влюбился в красавицу Жоржетту и хочет на ней жениться. Правда, бедолага Оливер еще не знает, что его зазноба уже давно замужем за бравым офицером из Французского Легиона по имени Франсуа. Чтобы заглушить сердечную боль, Харди сам вступает в Легион и прихватывает Стэнли с собой...

Стэн Лорел и Оливер Харди. Это мастера фарсовой клоунады, создавшие маски двух обаятельных чудаков: тщедушного плаксы Лорела и толстяка-бонвивана Харди.




Качество: DVDRip
Формат: AVI
Видео: XviD; 528x400 (4:3); 1033 Kbps; 23,976 fps; 0,204 bpp
Аудио 1: AC3; 192 Kbps; CBR; 2 ch [Русский]
Аудио 2: AC3; 192 Kbps; CBR; 2 ch [English]









Общее
Формат : AVI
Формат/Информация : Audio Video Interleave
Размер файла : 700 Мбайт
Продолжительность : 1 ч. 8 м.
Общий поток : 1432 Кбит/сек
Программа кодирования : VirtualDubMod 1.5.10.2 (build 2540/release)
Библиотека кодирования : VirtualDubMod build 2540/release

Видео
Идентификатор : 0
Формат : MPEG-4 Visual
Профиль формата : Simple@L3
Параметр BVOP формата : Нет
Параметр QPel формата : Нет
Параметр GMC формата : Без точки перехода
Параметр матрицы формата : Default (H.263)
Идентификатор кодека : XVID
Идентификатор кодека/Подсказка : XviD
Продолжительность : 1 ч. 8 м.
Битрейт : 1034 Кбит/сек
Ширина : 528 пикселей
Высота : 400 пикселей
Соотношение сторон : 4:3
Частота кадров : 23,976 кадра/сек
Цветовое пространство : YUV
Субдискретизация насыщенности : 4:2:0
Битовая глубина : 8 бит
Тип развёртки : Прогрессивная
Метод сжатия : С потерями
Бит/(Пиксели*Кадры) : 0.204
Размер потока : 505 Мбайт (72%)
Библиотека кодирования : XviD 1.0.3 (UTC 2004-12-20)

Аудио #1
Идентификатор : 1
Формат : AC-3
Формат/Информация : Audio Coding 3
Расширение режима : CM (complete main)
Идентификатор кодека : 2000
Продолжительность : 1 ч. 8 м.
Вид битрейта : Постоянный
Битрейт : 192 Кбит/сек
Каналы : 2 канала
Расположение каналов : Front: L R
Частота : 48,0 КГц
Битовая глубина : 16 бит
Метод сжатия : С потерями
Размер потока : 93,8 Мбайт (13%)
Выравнивание : Разделение по промежуткам
Продолжительность промежутка : 42 мс. (1,00 видеокадр)
Время предзагрузки промежутка : 500 мс.

Аудио #2
Идентификатор : 2
Формат : AC-3
Формат/Информация : Audio Coding 3
Расширение режима : CM (complete main)
Идентификатор кодека : 2000
Продолжительность : 1 ч. 8 м.
Вид битрейта : Постоянный
Битрейт : 192 Кбит/сек
Каналы : 2 канала
Расположение каналов : Front: L R
Частота : 48,0 КГц
Битовая глубина : 16 бит
Метод сжатия : С потерями
Размер потока : 93,8 Мбайт (13%)
Выравнивание : Разделение по промежуткам
Продолжительность промежутка : 42 мс. (1,00 видеокадр)
Время предзагрузки промежутка : 500 мс.

Релиз от: charm77



Скачать Летающая.парочка.The.Flying.Deuces.(А.Эдвард.Сазерлэнд).[1939.Комедия.DVDRip].[MVO].torrent без регистрации
Золото ЗОЛОТАЯ РАЗДАЧА! СКАЧАННОЕ НЕ ЗАСЧИТЫВАЕТСЯ! Золото
Дата: Зарегистрирован   [ Тип: внутренний ] Как тут cкачать?
MAGNET ссылка
MAGNET ссылка


Скачать .torrent

14 KB

Статус: проверено DHT
Скачан: торрент - 153 раз, раздача полностью - 11 раз
Размер: 700 MB
Оценка:  - (Голосов: 0)
Поблагодарили: 1
Поделиться ссылкой на эту раздачу с друзьями:
В контактеFacebookОдноклассникиTwitterLivejournalМой МирLiveinternet
 

 
Показать сообщения:    


Вы не можете начинать темы
Вы не можете отвечать на сообщения
Вы не можете редактировать свои сообщения
Вы не можете удалять свои сообщения
Вы не можете голосовать в опросах
Вы не можете прикреплять файлы к сообщениям
Вы можете скачивать файлы