Loading...
Error

Скачать Родина или смерть (Алла Криницына) [2007, детский, приключения, военный, DVDRip] торрент без регистрации

 
Статистика раздачи
Размер:  706 MB   |    Скачан:  117 раз
Сидов:  1  [  0 KB/s  ]  
 
Автор Сообщение

МихаНЕзатор

[] 

Информация о фильме
Название: Родина или смерть
Год выхода: 2007
Жанр: детский, приключения, военный
Режиссер: Алла Криницына
В ролях: Екатерина Редникова, Владислав Вьюжанин, Анна Ницкая, Виктор Немец, Федор Попов, Денис Никитик, Андрей Добровольский

О фильме:
Осенью 1942 года в прифронтовом районе происходит крупная железнодорожная диверсия: подрыв советского воинского эшелона, везущего на фронт технику и бойцов. Мгновенная реакция НКВД и военной контрразведки дает свои результаты. Становится известно, что в прифронтовой район через лесную болотистую местность переброшена группа подростков-диверсантов из германского диверсионного лагеря, созданного фашистами на оккупированной территории. Лагерь создан на базе бывшего детского дома для детей врагов народа, не успевшего эвакуироваться. Фашисты посчитали, что обездоленных, лишенных родителей детей, да еще с таким клеймом, легко можно превратить в слепое орудие для свершения различных диверсий. Но расчет их оказался верным лишь отчасти...

Страна: Россия
Продолжительность: 1:23:26
Перевод: нет

Файл
Кодек: DivX
Качество: DVDRip
Видео: DivX 5 640x384 25fps [Stream 00]
Звук: MPEG Audio Layer 3 44100Hz stereo 128kbps [Stream 01]
Субтитры: нет

Format : AVI
Format/Info : Audio Video Interleave
File size : 706 MiB
Duration : 1h 25mn
Overall bit rate : 1 159 Kbps
Writing application : Lavf51.12.1

Video
ID : 0
Format : MPEG-4 Visual
Format profile : Simple@L1
Format settings, BVOP : No
Format settings, QPel : No
Format settings, GMC : No warppoints
Format settings, Matrix : Default (H.263)
Codec ID : DX50
Codec ID/Hint : DivX 5
Duration : 1h 25mn
Bit rate : 1 019 Kbps
Width : 640 pixels
Height : 384 pixels
Display aspect ratio : 1.667
Frame rate : 25.000 fps
Color space : YUV
Chroma subsampling : 4:2:0
Bit depth : 8 bits
Scan type : Progressive
Compression mode : Lossy
Bits/(Pixel*Frame) : 0.166
Stream size : 621 MiB (88%)
Writing library : Lavc51.40.4

Audio
ID : 1
Format : MPEG Audio
Format version : Version 1
Format profile : Layer 3
Mode : Joint stereo
Mode extension : MS Stereo
Codec ID : 55
Codec ID/Hint : MP3
Duration : 1h 25mn
Bit rate mode : Constant
Bit rate : 128 Kbps
Channel(s) : 2 channels
Sampling rate : 44.1 KHz
Compression mode : Lossy
Stream size : 78.0 MiB (11%)
Alignment : Aligned on interleaves
Interleave, duration : 26 ms (0.65 video frame)
Interleave, preload duration : 26 ms
Writing library : LAME3.97



Скачать Родина.или.смерть.(Алла.Криницына).[2007.детский.приключения.военный.DVDRip].torrent без регистрации
Золото ЗОЛОТАЯ РАЗДАЧА! СКАЧАННОЕ НЕ ЗАСЧИТЫВАЕТСЯ! Золото
Дата: Зарегистрирован   [ Тип: внутренний ] Как тут cкачать?
MAGNET ссылка
MAGNET ссылка


Скачать .torrent

14 KB

Статус: проверено DHT
Скачан: торрент - 117 раз, раздача полностью - 43 раз
Размер: 706 MB
Оценка:  - (Голосов: 0)
Поблагодарили: 0
Поделиться ссылкой на эту раздачу с друзьями:
В контактеFacebookОдноклассникиTwitterLivejournalМой МирLiveinternet
 

 
Показать сообщения:    


Вы не можете начинать темы
Вы не можете отвечать на сообщения
Вы не можете редактировать свои сообщения
Вы не можете удалять свои сообщения
Вы не можете голосовать в опросах
Вы не можете прикреплять файлы к сообщениям
Вы можете скачивать файлы