Loading...
Error

Скачать Сыщик / The Finder (Сезон 1 полный) (Дэвид Бореаназ, Джеймс Хейман)[2012 г., драма, криминал, WEB-DLRip] [400p] [FilmGate] торрент без регистрации

 
Статистика раздачи
Размер:  10,99 GB   |    Скачан:  124 раза
Сидов:  1  [  0 KB/s  ]  
 
Автор Сообщение

leon030982

[] 

Сыщик / The Finder
Год выпуска: 2012
Жанр: драма, криминал

Продолжительность: 45 мин
Перевод: Любительский многоголосый закадровый(FilmGate)
Субтитры: нет
Режиссер: Дэвид Бореаназ, Джеймс Хейман
В ролях:
Майкл Кларк Дункан, Мэдди Хассон, Мерседес Масун, Джофф Стульц, Шарлин Амойя, Майкл Бауэр, Майкл Гамбино, Патрик Роберт Смит, Рой Вернер, Эрик Томас Уилсон...
Описание:
Спин-офф (spin-off ) сериала «Bones» ("Кости").
Подорвавшись на бомбе в Ираке Уолтер Шерман обрёл не только паранойю, но усилил свой талант Сыщика. Вместе со своим напарником и адвокатом Лео Ноксом они могут разыскать любой объект, будь то пара носков или спрятанный труп. Гигант Лео обрёл философский взгляд на жизнь после смерти жены и детей. И купил бар На краю Света, который стал базой команды.

Качество: WEB-DLRip
Формат: AVI

Видео: 720x400 (1.80:1), 23.976 fps, XviD build 64 ~2000 kbps avg, 0.29 bit/pixel
Аудио Rus: 48 kHz, AC3 Dolby Digital, 3/2 (L,C,R,l,r) + LFE ch, ~384.00 kbps avg
Аудио Eng: 48 kHz, AC3 Dolby Digital, 3/2 (L,C,R,l,r) + LFE ch, ~384.00 kbps avg
Озвучка и работа со звуком: ireeda, ozzi, zeddicus
Перевод: olga357, vergi

Работа со звуком: GATER_media
Рип: ЛП


General
Complete name : G:\ФТП 2\Work\FilmGate\The Finder Season 1\The.Finder.s01e01.rus.eng.avi
Format : AVI
Format/Info : Audio Video Interleave
File size : 875 MiB
Duration : 44mn 0s
Overall bit rate : 2 779 Kbps
Writing application : VirtualDubMod 1.5.10.2 (build 2540/release)
Writing library : VirtualDubMod build 2540/release
Video

ID : 0
Format : MPEG-4 Visual
Format profile : Advanced Simple@L5
Format settings, BVOP : 1
Format settings, QPel : No
Format settings, GMC : No warppoints
Format settings, Matrix : Default (MPEG)
Codec ID : XVID
Codec ID/Hint : XviD
Duration : 44mn 0s
Bit rate : 1 997 Kbps
Width : 720 pixels
Height : 400 pixels
Display aspect ratio : 16:9
Frame rate : 23.976 fps
Color space : YUV
Chroma subsampling : 4:2:0
Bit depth : 8 bits
Scan type : Progressive
Compression mode : Lossy
Bits/(Pixel*Frame) : 0.289
Stream size : 629 MiB (72%)
Writing library : XviD 1.2.1 (UTC 2008-12-04)
Audio #1
ID : 1
Format : AC-3
Format/Info : Audio Coding 3
Mode extension : CM (complete main)
Codec ID : 2000
Duration : 44mn 0s
Bit rate mode : Constant
Bit rate : 384 Kbps
Channel(s) : 6 channels
Channel positions : Front: L C R, Side: L R, LFE
Sampling rate : 48.0 KHz
Bit depth : 16 bits
Compression mode : Lossy
Stream size : 121 MiB (14%)
Alignment : Split accross interleaves
Interleave, duration : 42 ms (1.00 video frame)
Interleave, preload duration : 500 ms
Audio #2
ID : 2
Format : AC-3
Format/Info : Audio Coding 3
Mode extension : CM (complete main)
Codec ID : 2000
Duration : 44mn 0s
Bit rate mode : Constant
Bit rate : 384 Kbps
Channel(s) : 6 channels
Channel positions : Front: L C R, Side: L R, LFE
Sampling rate : 48.0 KHz
Bit depth : 16 bits
Compression mode : Lossy
Stream size : 121 MiB (14%)
Alignment : Split accross interleaves
Interleave, duration : 42 ms (1.00 video frame)
Interleave, preload duration : 500 ms



Скачать Сыщик.The.Finder.(Сезон.1.полный).(Дэвид.Бореаназ.Джеймс.Хейман)[2012.г.драма.криминал.WEB-DLRip].[400p].[FilmGate].torrent без регистрации
Золото ЗОЛОТАЯ РАЗДАЧА! СКАЧАННОЕ НЕ ЗАСЧИТЫВАЕТСЯ! Золото
Дата: Зарегистрирован   [ Тип: внутренний ] Как тут cкачать?
MAGNET ссылка
MAGNET ссылка


Скачать .torrent

29 KB

Статус: проверено DHT
Скачан: торрент - 124 раз, раздача полностью - 4 раз
Размер: 10,99 GB
Оценка:  - (Голосов: 0)
Поблагодарили: 1
Поделиться ссылкой на эту раздачу с друзьями:
В контактеFacebookОдноклассникиTwitterLivejournalМой МирLiveinternet
 

 
Показать сообщения:    


Вы не можете начинать темы
Вы не можете отвечать на сообщения
Вы не можете редактировать свои сообщения
Вы не можете удалять свои сообщения
Вы не можете голосовать в опросах
Вы не можете прикреплять файлы к сообщениям
Вы можете скачивать файлы