Loading...
Error

Скачать Сыщик / The Finder / (Полный 1-ый сезон) (Джеймс Хейман) [2012, Детектив, WEB-DL] [720p] [DD 5.1 FilmGate] торрент без регистрации

 
Статистика раздачи
Размер:  19,43 GB   |    Скачан:  136 раз
Сидов:  1  [  0 KB/s  ]  
 
Автор Сообщение

leon030982

[] 

Сыщик
The Finder
___________________
___________________
Год выпуска • 2012
Страна • США
Жанр • Детектив, Драма

Режиссёр • Дэвид Бореаназ, Джеймс Хейман
В ролях • Майкл Кларк Дункан, Мэдди Хассон, Мерседес Масун, Джофф Стульц, Шарлин Амойя, Майкл Бауэр, Майкл Гамбино, Патрик Роберт Смит, Рой Вернер, Эрик Томас Уилсон, и др.

Описание • Спин-офф (spin-off ) сериала «Bones» ("Кости").
Подорвавшись на бомбе в Ираке Уолтер Шерман обрёл не только паранойю, но усилил свой талант Сыщика. Вместе со своим напарником и адвокатом Лео Ноксом они могут разыскать любой объект, будь то пара носков или спрятанный труп. Гигант Лео обрёл философский взгляд на жизнь после смерти жены и детей. И купил бар На краю Света, который стал базой команды.

Озвучка и работа со звукомireeda, ozzi, zeddicus

Переводolga357, vergi
Озвучание • Любительский (многоголосый, закадровый) « FilmGate »
Автор РипаECI

Работа со звукомGater
Релиз подготовилGater

Продолжительность: ~ 44 Мин.
Качество: WEB-DL 720p
Формат: MKV
Видео: MPEG-4 AVC / 4660 kbps / 1280:720p / 23.976 fps / 16:9 / 0.211 bit/pixel / High Level 3.1
Аудио:
Русский
/ Dolby Digital 5.1 / 48 kHz / 384 kbps
English / Dolby Digital 5.1 / 48 kHz / 384 kbps



Общее
Уникальный идентификатор : 176648084126921639562636607743404307842 (0x84E52EF8CC79CE8581F7C4BA3AC87582)
Полное имя : C:\Documents and Settings\Admin\Мои документы\Мои видеозаписи\фильмы\Моё\Констракшн\Сыщик\The Finder S01 WEB-DL 720p (DD 5.1 FilmGate)\The Finder S01E01 WEB-DL 720p (DD 5.1 FilmGate).mkv
Формат : Matroska
Размер файла : 1,71 Гбайт
Продолжительность : 44 м.
Общий поток : 5539 Кбит/сек
Дата кодирования : UTC 2012-01-20 12:08:04
Программа кодирования : mkvmerge v4.0.0 ('The Stars were mine') сборка от Jun 6 2010 16:18:42
Библиотека кодирования : libebml v1.0.0 + libmatroska v1.0.0
Видео
Идентификатор : 1
Формат : AVC
Формат/Информация : Advanced Video Codec
Профиль формата : High@L3.1
Параметр CABAC формата : Нет
Параметр ReFrames формата : 2 кадры
Параметры GOP формата : M=2, N=25
Идентификатор кодека : V_MPEG4/ISO/AVC
Продолжительность : 44 м.
Битрейт : 4660 Кбит/сек
Ширина : 1280 пикс.
Высота : 720 пикс.
Соотношение сторон : 16:9
Частота кадров : 23,976 кадр/сек
Цветовое пространство : YUV
Подвыборка цветности : 4:2:0
Битовая глубина : 8 бит
Тип развёртки : Прогрессивная
Бит/(Пиксели*Кадры) : 0.211
Размер потока : 1,44 Гбайт (84%)
Язык : English
Основные цвета : BT.709-5, BT.1361, IEC 61966-2-4, SMPTE RP177
Характеристики трансфера : BT.709-5, BT.1361
Коэффициенты матрицы : BT.709-5, BT.1361, IEC 61966-2-4 709, SMPTE RP177
Аудио #1
Идентификатор : 2
Формат : AC-3
Формат/Информация : Audio Coding 3
Расширение режима : CM (complete main)
Идентификатор кодека : A_AC3
Продолжительность : 44 м.
Вид битрейта : Постоянный
Битрейт : 384 Кбит/сек
Канал(ы) : 6 канала(ов)
Расположение каналов : Front: L C R, Side: L R, LFE
Частота : 48,0 КГц
Битовая глубина : 16 бит
Метод сжатия : С потерями
Размер потока : 121 Мбайт (7%)
Язык : Russian
Аудио #2
Идентификатор : 3
Формат : AC-3
Формат/Информация : Audio Coding 3
Расширение режима : CM (complete main)
Идентификатор кодека : A_AC3
Продолжительность : 44 м.
Вид битрейта : Постоянный
Битрейт : 384 Кбит/сек
Канал(ы) : 6 канала(ов)
Расположение каналов : Front: L C R, Side: L R, LFE
Частота : 48,0 КГц
Битовая глубина : 16 бит
Метод сжатия : С потерями
Размер потока : 121 Мбайт (7%)
Язык : English



Скачать Сыщик.The.Finder.(Полный.1-ый.сезон).(Джеймс.Хейман).[2012.Детектив.WEB-DL].[720p].[DD.5.1.FilmGate].torrent без регистрации
Золото ЗОЛОТАЯ РАЗДАЧА! СКАЧАННОЕ НЕ ЗАСЧИТЫВАЕТСЯ! Золото
Дата: Зарегистрирован   [ Тип: внутренний ] Как тут cкачать?
MAGNET ссылка
MAGNET ссылка


Скачать .torrent

50 KB

Статус: проверено DHT
Скачан: торрент - 136 раз, раздача полностью - 4 раз
Размер: 19,43 GB
Оценка:  - (Голосов: 0)
Поблагодарили: 2
Поделиться ссылкой на эту раздачу с друзьями:
В контактеFacebookОдноклассникиTwitterLivejournalМой МирLiveinternet
 

 
Показать сообщения:    


Вы не можете начинать темы
Вы не можете отвечать на сообщения
Вы не можете редактировать свои сообщения
Вы не можете удалять свои сообщения
Вы не можете голосовать в опросах
Вы не можете прикреплять файлы к сообщениям
Вы можете скачивать файлы