Loading...
Error

/ / Les Bonnes Causes (-) [1963, , , DVDRip] [MVO] + [DUB]

 
823 MB   |    :  139

: 5 11

 

leon030982

[] 

/ / Les Bonnes Causes

: ,
: ,
: 1963
: 1:52:20
1: ( )
2: ()
[/ . ] +
C:
: - / Christian-Jaque
: , , , , , , , , - , .
: . : , - , , - . , . , ...

: DVDRip-ASP
: , Master_Bum
: AVI
: 640x272 (2.35:1), 25 fps, XviD MPEG-4 ~790 kbps avg, 0.18 bit/pixel
#1: 48 kHz, MPEG Layer 3, 2 ch, ~128.00 kbps avg [MVO]
#2: 48 kHz, MPEG Layer 3, 1 ch, ~96.00 kbps avg [Dub] {}
: 746 MB (1/6 DVD) - !

:

[color=black]General
Complete name : C:\LES BONNES CAUSES - DVD5\Les_Bonnes_Causes.DVDRip\Les_Bonnes_Causes.DVDRip.MVO.avi
Format : AVI
Format/Info : Audio Video Interleave
File size : 746 MiB
Duration : 1h 52mn
Overall bit rate : 928 Kbps
Writing application : VirtualDubMod 1.5.10.3 | www.virtualdub-fr.org || (build 2550/release)
Writing library : VirtualDubMod build 2550/release
Video
ID : 0
Format : MPEG-4 Visual
Format profile : Advanced Simple@L5
Format settings, BVOP : 2
Format settings, QPel : No
Format settings, GMC : No warppoints
Format settings, Matrix : Custom
Codec ID : XVID
Codec ID/Hint : XviD
Duration : 1h 52mn
Bit rate : 790 Kbps
Width : 640 pixels
Height : 272 pixels
Display aspect ratio : 2.35:1
Frame rate : 25.000 fps
Color space : YUV
Chroma subsampling : 4:2:0
Bit depth : 8 bits
Scan type : Progressive
Compression mode : Lossy
Bits/(Pixel*Frame) : 0.182
Stream size : 635 MiB (85%)
Writing library : XviD 65
Audio
ID : 1
Format : MPEG Audio
Format version : Version 1
Format profile : Layer 3
Mode : Joint stereo
Mode extension : MS Stereo
Codec ID : 55
Codec ID/Hint : MP3
Duration : 1h 52mn
Bit rate mode : Constant
Bit rate : 128 Kbps
Channel(s) : 2 channels
Sampling rate : 48.0 KHz
Compression mode : Lossy
Stream size : 103 MiB (14%)
Alignment : Aligned on interleaves
Interleave, duration : 40 ms (1.00 video frame)
Interleave, preload duration : 504 ms
Writing library : L3.99r
Encoding settings : -m j -V 4 -q 0 -lowpass 17 -b 128[/color]

:

[color=black]General
Complete name : C:\LES BONNES CAUSES - DVD5\Les_Bonnes_Causes.DVDRip\Les_Bonnes_Causes.DVDRip.DUB.mp3
Format : MPEG Audio
File size : 77.1 MiB
Duration : 1h 52mn
Overall bit rate mode : Constant
Overall bit rate : 96.0 Kbps
Writing library : L3.99r
Audio
Format : MPEG Audio
Format version : Version 1
Format profile : Layer 3
Duration : 1h 52mn
Bit rate mode : Constant
Bit rate : 96.0 Kbps
Channel(s) : 1 channel
Sampling rate : 48.0 KHz
Compression mode : Lossy
Stream size : 77.1 MiB (100%)
Writing library : L3.99r
Encoding settings : -m m -V 4 -q 2 -lowpass 20.5 -b 96[/color]




....Les.Bonnes.Causes.(-).[1963...DVDRip].[MVO].+.[DUB].torrent
  ! ! 
:   [ : ] c?
MAGNET
MAGNET


.torrent

33 KB

:
: - 139 , - 3
: 823 MB
- (: 0)
: 1
:
 FacebookTwitterLivejournal Liveinternet
 

 
: