Loading...
Error

Скачать Следствие закончено: забудьте / L' istruttoria e chiusa: dimentichi (Дамиано Дамиани) [1971 г., триллер, драма DVDRip] [DUB] торрент без регистрации

 
Статистика раздачи
Размер:  746 MB   |    Скачан:  199 раз

Полного источника не было: 17 дней

 
Автор Сообщение

leon030982

[] 

Следствие закончено: забудьте / L' istruttoria e chiusa: dimentichi

Страна: Италия
Жанр: триллер, драма
Год выпуска: 1971
Продолжительность: 01:41:26
Перевод: Советский дубляж
Cубтитры: нет
Режиссер: Дамиано Дамиани

В ролях: Франко Неро, Жорж Вильсон, Джон Стайнер, Риккардо Куччолла, Ферруччо Де Череза, Антонио Казале, Симона Санто, Даниэле Дублино, Тури Ферро, Пьеро Нути

Описание: Архитектора Ванци поместили на время следствия в тюрьму. Его подозревают в том, что он сбил человека на пешеходном переходе. Попав в тюрьму, Ванци знакомится с её обитателями — матерыми уголовниками, убийцами, сумасшедшими, жестокими надзирателями и крупным чиновником Сальваторе Роза, который сел, чтобы прикрыть махинации своих начальников.
И здесь этот человек чувствует себя королем. По прошествии времени Ванци подсаживают в камеру к некоему Пезенти, на которого точит зуб крупная компания и ряд чиновников. Они готовы на всё ради того, чтобы этот человек замолчал, ибо он обладает неоспоримыми доказательствами их вины в гибели 1000 человек. Постепенно Ванци понимает, что он марионетка в невидимых и могущественных руках и что его используют для ликвидации последнего свидетеля этих злодеяний…

КиноПоиск.RU - 7.818 (45) | IMDB - 7.10 (104)

Качество видео: DVDRip - Сэмпл
Формат видео: AVI
Исходник: - Спасибо Lucian666
Видео: 688x384 (1.79:1), 25 fps, XviD MPEG-4 ~826 kbps avg, 0.13 bit/pixel
Аудио: 48 kHz, AC3 Dolby Digital, 1/0 (C) ch, ~192 kbps
Общее
Полное имя : D:\L' istruttoria e chiusa_dimentichi_1971_DVDRip_Dub.avi
Формат : AVI
Формат/Информация : Audio Video Interleave
Размер файла : 746 Мбайт
Продолжительность : 1 ч. 41 м.
Общий поток : 1028 Кбит/сек
Программа кодирования : VirtualDubMod 1.5.10.3 | www.virtualdub-fr.org || (build 2550/release)
Библиотека кодирования : VirtualDubMod build 2550/release
Видео
Идентификатор : 0
Формат : MPEG-4 Visual
Профиль формата : Advanced Simple@L5
Параметр BVOP формата : 2
Параметр QPel формата : Нет
Параметр GMC формата : Без точки перехода
Параметр матрицы формата : Выборочная
Режим смешивания : Сжатый битовый поток
Идентификатор кодека : XVID
Идентификатор кодека/Подсказка : XviD
Продолжительность : 1 ч. 41 м.
Битрейт : 827 Кбит/сек
Ширина : 688 пикселей
Высота : 384 пикселя
Соотношение сторон : 16:9
Частота кадров : 25,000 кадров/сек
Цветовое пространство : YUV
Субдискретизация насыщенности : 4:2:0
Битовая глубина : 8 бит
Тип развёртки : Прогрессивная
Метод сжатия : С потерями
Бит/(Пиксели*Кадры) : 0.125
Размер потока : 600 Мбайт (80%)
Библиотека кодирования : XviD 64
Аудио
Идентификатор : 1
Формат : AC-3
Формат/Информация : Audio Coding 3
Расширение режима : CM (complete main)
Идентификатор кодека : 2000
Продолжительность : 1 ч. 41 м.
Вид битрейта : Постоянный
Битрейт : 192 Кбит/сек
Каналы : 1 канал
Расположение каналов : Front: C
Частота : 48,0 КГц
Битовая глубина : 16 бит
Метод сжатия : С потерями
Размер потока : 139 Мбайт (19%)
Выравнивание : Разделение по промежуткам
Продолжительность промежутка : 40 мс. (1,00 видеокадр)
Время предзагрузки промежутка : 500 мс.



Скачать Следствие.закончено.забудьте.L'.istruttoria.e.chiusa.dimentichi.(Дамиано.Дамиани).[1971.г.триллер.драма.DVDRip].[DUB].torrent без регистрации
Золото ЗОЛОТАЯ РАЗДАЧА! СКАЧАННОЕ НЕ ЗАСЧИТЫВАЕТСЯ! Золото
Дата: Зарегистрирован   [ Тип: внутренний ] Как тут cкачать?
MAGNET ссылка
MAGNET ссылка


Скачать .torrent

15 KB

Статус: проверено
Скачан: торрент - 199 раз, раздача полностью - 57 раз
Размер: 746 MB
Оценка:  - (Голосов: 0)
Поблагодарили: 4
Поделиться ссылкой на эту раздачу с друзьями:
В контактеFacebookОдноклассникиTwitterLivejournalМой МирLiveinternet
 

 
Показать сообщения:    


Вы не можете начинать темы
Вы не можете отвечать на сообщения
Вы не можете редактировать свои сообщения
Вы не можете удалять свои сообщения
Вы не можете голосовать в опросах
Вы не можете прикреплять файлы к сообщениям
Вы можете скачивать файлы