Loading...
Error

Скачать День, когда Земля воспылала огнём / The Day the Earth Caught Fire (Вэл Гест) [1961, Фантастика, драма, Фильм-катастрофа, DVDRip] [VO] (студия Трамвай-фильм) торрент без регистрации

 
Статистика раздачи
Размер:  1,48 GB   |    Скачан:  137 раз
Сидов:  1  [  0 KB/s  ]  
 
Автор Сообщение

leon030982

[] 

День, когда Земля воспылала огнём / The Day the Earth Caught Fire
Страна: Великобритания
Жанр: Фантастика, Драма, Фильм-катастрофа
Год выпуска: 1961
Продолжительность: 01:38:49
Перевод: Студийный (одноголосый закадровый) Доп. инфо о переводе студия Трамвай-фильм
Cубтитры: нет
Оригинальная аудиодорожка: английский
Режиссер: Вэл Гест
В ролях: Джанет Манро /Janet Munro ... Джинни Крэйг
Лео МакКёрн /Leo McKern ... Билл Магуайр
Эдвард Джадд /Edward Judd ... Питер Стэннинг
Майкл Гудлифф /Michael Goodliffe ... Джеко Джексон (ночной редактор)
Бернард Брэйден /Bernard Braden ... Дэвис (редактор новостей)
Реджиналд Бекуит /Reginald Beckwith ... Гарри
Джин Андерсон /Gene Anderson ... Мэй

Описание: "Одновременные экспериментальные атомные взрывы, произведенные в США и СССР приводят к тому, что Земля сходит со своей орбиты и неминуемо приближается к Солнцу. Власти обеих государств хранят молчание, но ретивый журналист газеты «The London Daily Express» Пит Стеннинг с помощью знакомой телефонистки Дженни Крэйг доискивается до правды. Оказывается, в течение следующих четырех месяцев все население планеты неминуемо должно «поджариться». Все нации и народы Земли объединяют свои усилия для спасения планеты…

Благодарность за рип JNewton (CG)
Релиз
Синхронизация звуковой дорожки Ivanov (Vonavi)
Качество видео: DVDRip
Формат видео: AVI
Видео: 640x256 (2.50:1), 23.976 fps, XviD build 46 ~1873 kbps avg, 0.48 bit/pixel
Аудио: 48 kHz, MPEG Layer 3, 2 ch, 128.00 kbps (рус.)
Аудио 2: 48 kHz, MPEG Layer 3, 2 ch, 128.00 kbps (англ.)
Полное имя : D:\Day.the.Earth.Caught.Fire,.The.1961.(DVDRip.XviD.Rus.Eng).avi
Формат : AVI
Формат/Информация : Audio Video Interleave
Размер файла : 1,48 Гбайт
Продолжительность : 1 ч. 38 м.
Общий поток : 2145 Кбит/сек
Программа кодирования : VirtualDubMod 1.5.10.1 (build 2366/release)
Библиотека кодирования : VirtualDubMod build 2366/release
Видео
Идентификатор : 0
Формат : MPEG-4 Visual
Профиль формата : Advanced Simple@L5
Параметр BVOP формата : 1
Параметр QPel формата : Нет
Параметр GMC формата : Без точки перехода
Параметр матрицы формата : Default (MPEG)
Идентификатор кодека : XVID
Идентификатор кодека/Подсказка : XviD
Продолжительность : 1 ч. 38 м.
Битрейт : 1875 Кбит/сек
Ширина : 640 пикс.
Высота : 256 пикс.
Соотношение сторон : 2,500
Частота кадров : 23,976 кадр/сек
Цветовое пространство : YUV
Подвыборка цветности : 4:2:0
Битовая глубина : 8 бит
Тип развёртки : Прогрессивная
Метод сжатия : С потерями
Бит/(Пиксели*Кадры) : 0.477
Размер потока : 1,29 Гбайт (87%)
Библиотека кодирования : XviD 1.1.2 (UTC 2006-11-01)
Аудио #1
Идентификатор : 1
Формат : MPEG Audio
Версия формата : Version 1
Профиль формата : Layer 3
Режим : Joint stereo
Расширение режима : MS Stereo
Идентификатор кодека : 55
Идентификатор кодека/Подсказка : MP3
Продолжительность : 1 ч. 38 м.
Вид битрейта : Постоянный
Битрейт : 128 Кбит/сек
Канал(ы) : 2 канала(ов)
Частота : 48,0 КГц
Метод сжатия : С потерями
Размер потока : 90,5 Мбайт (6%)
Выравнивание : Соединение по промежуткам
Продолжительность промежутка : 42 мс. (1,00 видеокадр)
Время предзагрузки промежутка : 504 ms
Аудио #2
Идентификатор : 2
Формат : MPEG Audio
Версия формата : Version 1
Профиль формата : Layer 3
Режим : Joint stereo
Расширение режима : MS Stereo
Идентификатор кодека : 55
Идентификатор кодека/Подсказка : MP3
Продолжительность : 1 ч. 38 м.
Вид битрейта : Постоянный
Битрейт : 128 Кбит/сек
Канал(ы) : 2 канала(ов)
Частота : 48,0 КГц
Метод сжатия : С потерями
Размер потока : 90,5 Мбайт (6%)
Выравнивание : Соединение по промежуткам
Продолжительность промежутка : 42 мс. (1,00 видеокадр)
Время предзагрузки промежутка : 504 ms



Скачать День.когда.Земля.воспылала.огнём.The.Day.the.Earth.Caught.Fire.(Вэл.Гест).[1961.Фантастика.драма.Фильм-катастрофа.DVDRip].[VO].(студия.Трамвай-фильм).torrent без регистрации
Золото ЗОЛОТАЯ РАЗДАЧА! СКАЧАННОЕ НЕ ЗАСЧИТЫВАЕТСЯ! Золото
Дата: Зарегистрирован   [ Тип: внутренний ] Как тут cкачать?
MAGNET ссылка
MAGNET ссылка


Скачать .torrent

15 KB

Статус: проверено DHT
Скачан: торрент - 137 раз, раздача полностью - 11 раз
Размер: 1,48 GB
Оценка:  - (Голосов: 0)
Поблагодарили: 1
Поделиться ссылкой на эту раздачу с друзьями:
В контактеFacebookОдноклассникиTwitterLivejournalМой МирLiveinternet
 

 
Показать сообщения:    


Вы не можете начинать темы
Вы не можете отвечать на сообщения
Вы не можете редактировать свои сообщения
Вы не можете удалять свои сообщения
Вы не можете голосовать в опросах
Вы не можете прикреплять файлы к сообщениям
Вы можете скачивать файлы