Loading...
Error

Скачать Молот ведьм / Kladivo na carodejnice (Отакар Вавра) [1969 г., драма, DVDRip] [AVO] (Юрий Сербин) торрент без регистрации

 
Статистика раздачи
Размер:  745 MB   |    Скачан:  132 раза

Полного источника не было: 8 месяцев

 
Автор Сообщение

leon030982

[] 

Молот ведьм / Kladivo na carodejnice

Страна: Чехословакия
Жанр: драма
Год выпуска: 1969
Продолжительность: 01:42:23
Перевод: Авторской (одноголосый) - Юрий Сербин
Cубтитры: нет

Режиссер: Отакар Вавра / Otakar Vávra

В ролях: Ело Романчик, Владимир Шмерал, Соня Валентова, Йозеф Кемр, Lola Skrbková, Иржина Штепничкова, Мари Надемлейнска, Мириам Канторкова, Лубор Токош, Блажена Голишова

Описание: XVII век. Инквизиция держит в страхе всю Европу. И простой люд и знать верят, что повсюду обитают ведьмы. Для скорого суда и расправы над колдуньями по городам и селам разъезжают жестокие мракобесы-инквизиторы. Не гнушаясь изощренными пытками и обманом, они повсюду устраивают «азартную» охоту на ведьм.
В страшных мучениях жены оговаривают мужей, дети — отцов, среди всеобщего страха целые семьи идут на костер, лишь немногие решаются выступить против карающей длани святой церкви. В своей борьбе они могут полагаться на Бога. Но услышит ли Господь молитвы тех, над кем инквизиция уже занесла кровавый топор?

КиноПоиск.RU - 7.982 (75) | IMDB - 7.70 (541)

Качество видео: DVDRip - Сэмпл
Формат видео: AVI
Исходник: - Спасибо Master_Bum
Видео: 688x304 (2.26:1), 25 fps, XviD MPEG-4 ~880 kbps avg, 0.17 bit/pixel
Аудио: 48 kHz, MPEG Layer 3, 2 ch, ~128.00 kbps avg
Из-за очень впечатляющего изображения атмосферы страха и принудительных признаний, которые напоминали сталинские методы коммунистического режима 50-х гг., фильм был снят с проката и появился на телеэкранах только после 1989 года.
Общее
Полное имя : D:\Molot_vedm_1969_DVDRip_AVO_Serbin.avi
Формат : AVI
Формат/Информация : Audio Video Interleave
Размер файла : 745 Мбайт
Продолжительность : 1 ч. 42 м.
Общий поток : 1018 Кбит/сек
Программа кодирования : VirtualDubMod 1.5.10.3 | www.virtualdub-fr.org || (build 2550/release)
Библиотека кодирования : VirtualDubMod build 2550/release
Видео
Идентификатор : 0
Формат : MPEG-4 Visual
Профиль формата : Advanced Simple@L5
Параметр BVOP формата : 2
Параметр QPel формата : Нет
Параметр GMC формата : Без точки перехода
Параметр матрицы формата : Выборочная
Режим смешивания : Сжатый битовый поток
Идентификатор кодека : XVID
Идентификатор кодека/Подсказка : XviD
Продолжительность : 1 ч. 42 м.
Битрейт : 880 Кбит/сек
Ширина : 688 пикселей
Высота : 304 пикселя
Соотношение сторон : 2,25:1
Частота кадров : 25,000 кадров/сек
Цветовое пространство : YUV
Субдискретизация насыщенности : 4:2:0
Битовая глубина : 8 бит
Тип развёртки : Прогрессивная
Метод сжатия : С потерями
Бит/(Пиксели*Кадры) : 0.168
Размер потока : 645 Мбайт (86%)
Библиотека кодирования : XviD 64
Аудио
Идентификатор : 1
Формат : MPEG Audio
Версия формата : Version 1
Профиль формата : Layer 3
Идентификатор кодека : 55
Идентификатор кодека/Подсказка : MP3
Продолжительность : 1 ч. 42 м.
Вид битрейта : Постоянный
Битрейт : 128 Кбит/сек
Каналы : 2 канала
Частота : 48,0 КГц
Метод сжатия : С потерями
Размер потока : 93,7 Мбайт (13%)
Выравнивание : Соединение по промежуткам
Продолжительность промежутка : 40 мс. (1,00 видеокадр)
Время предзагрузки промежутка : 504 мс.
Библиотека кодирования : LAME3.99
Настройки программы : -m s -V 4 -q 2 -lowpass 17 -b 128



Скачать Молот.ведьм.Kladivo.na.carodejnice.(Отакар.Вавра).[1969.г.драма.DVDRip].[AVO].(Юрий.Сербин).torrent без регистрации
Золото ЗОЛОТАЯ РАЗДАЧА! СКАЧАННОЕ НЕ ЗАСЧИТЫВАЕТСЯ! Золото
Дата: Зарегистрирован   [ Тип: внутренний ] Как тут cкачать?
MAGNET ссылка
MAGNET ссылка


Скачать .torrent

15 KB

Статус: проверено
Скачан: торрент - 132 раз, раздача полностью - 4 раз
Размер: 745 MB
Оценка:  5 (Голосов: 1)
Поблагодарили: 3
Поделиться ссылкой на эту раздачу с друзьями:
В контактеFacebookОдноклассникиTwitterLivejournalМой МирLiveinternet
 

 
Показать сообщения:    


Вы не можете начинать темы
Вы не можете отвечать на сообщения
Вы не можете редактировать свои сообщения
Вы не можете удалять свои сообщения
Вы не можете голосовать в опросах
Вы не можете прикреплять файлы к сообщениям
Вы можете скачивать файлы