Loading...
Error

Скачать Убей меня / You Kill Me (Джон Дал / John Dahl) [2007, криминальная трагикомедия, HDRip] торрент без регистрации

 
Статистика раздачи
Размер:  1,7 GB   |    Скачан:  148 раз
Сидов:  1  [  0 KB/s  ]  
 
Автор Сообщение

Marsianka

[] 


Убей меня / You Kill Me


Год выпуска: 2007
Выпущено: США
Жанр: криминальная трагикомедия
Продолжительность: 1:32:38
Перевод: Профессиональный (дублированный)
Субтитры: : русские,английские - отдельно Оригинальная аудиодорожка: английский - отдельно.
Формат субтитров: softsub (SRT)

Режиссер: Джон Дал / John Dahl

В ролях: Бен Кингсли /Ben Kingsley/, Теа Леони /Téa Leoni/, Люк Уилсон /Luke Wilson/, Дэннис Фарина /Dennis Farina/, Филип Бейкер Холл /Philip Baker Hall/, Билл Пуллман /Bill Pullman/, Маркус Томас /Marcus Thomas/, Скотт Хейндл /Scott Heindl/, Элисон Сили-Смит /Alison Sealy-Smith/, Арон Тэйджер /Aron Tager/

Описание: Фрэнк — наемный убийца мафии. Однажды он круто напился и проспал очень важное задание. Твердо решив «завязать», герой ложится в клинику. Кто мог подумать, что вместо белой горячки он встретит там неземную любовь и решит начать новую жизнь? Однако сначала ему придется выполнить старый заказ. Ведь гнусный тип — его будущая жертва — захватил власть в городе, и ситуация вышла из-под контроля. Фрэнки без труда разобрался бы с выскочкой. Но невеста героя решила тайком «помочь» ему, превратив в чудовищный хаос простое и легкое дело…





File: You.Kill.Me.chopper887.avi
Filesize: 1490.53 Mb ( 1 562 929 152 bytes )
Play length: 01:32:38.103 (133261 frames)
Subtitles: eng, rus (SubRip format)
Video: 720x288 (2.50:1), 23.976 fps, XviD build 50 ~1856 kbps avg, 0.37 bit/pixel
Audio: 48 kHz, AC3 Dolby Digital, 3/2 (L,C,R,l,r) + LFE ch, ~384 kbps
General
Complete name : D:You.Kill.Me.chopper887You.Kill.Me.chopper887.avi
Format : AVI
Format/Info : Audio Video Interleave
File size : 1.46 GiB
Duration : 1h 32mn
Overall bit rate : 2 250 Kbps
Writing application : VirtualDubMod 1.5.10.2 (build 2540/release)
Writing library : VirtualDubMod build 2540/release

Video
ID : 0
Format : MPEG-4 Visual
Format profile : AdvancedSimple@L5
Format settings, BVOP : Yes
Format settings, QPel : No
Format settings, GMC : No warppoints
Format settings, Matrix : Custom
Codec ID : XVID
Codec ID/Hint : XviD
Duration : 1h 32mn
Bit rate : 1 857 Kbps
Width : 720 pixels
Height : 288 pixels
Display aspect ratio : 2.500
Frame rate : 23.976 fps
Resolution : 24 bits
Colorimetry : 4:2:0
Scan type : Progressive
Bits/(Pixel*Frame) : 0.374
Stream size : 1.20 GiB (83%)
Writing library : XviD 1.2.1 (UTC 2008-12-04)

Audio
ID : 1
Format : AC-3
Format/Info : Audio Coding 3
Codec ID : 2000
Duration : 1h 32mn
Bit rate mode : Constant
Bit rate : 384 Kbps
Channel(s) : 6 channels
Channel positions : Front: L C R, Surround: L R, LFE
Sampling rate : 48.0 KHz
Stream size : 254 MiB (17%)
Alignment : Split accross interleaves
Interleave, duration : 42 ms (1.00 video frame)
Interleave, preload duration : 500 ms


Качество: HDRip(Исх. BD1080)
Формат: AVI
Видео: 720x288 (2.50:1), 23.976 fps, XviD build 50 ~1856 kbps avg, 0.37 bit/pixel
Аудио: 48 kHz, AC3 Dolby Digital, 3/2 (L,C,R,l,r) + LFE ch, ~384 kbps














Скачать Убей.меня.You.Kill.Me.(Джон.Дал.John.Dahl).[2007.криминальная.трагикомедия.HDRip].torrent без регистрации
Золото ЗОЛОТАЯ РАЗДАЧА! СКАЧАННОЕ НЕ ЗАСЧИТЫВАЕТСЯ! Золото
Дата: Зарегистрирован   [ Тип: внутренний ] Как тут cкачать?
MAGNET ссылка
MAGNET ссылка


Скачать .torrent

18 KB

Статус: проверено DHT
Скачан: торрент - 148 раз, раздача полностью - 76 раз
Размер: 1,7 GB
Оценка:  5 (Голосов: 1)
Поблагодарили: 4
Поделиться ссылкой на эту раздачу с друзьями:
В контактеFacebookОдноклассникиTwitterLivejournalМой МирLiveinternet
 

 
Показать сообщения:    


Вы не можете начинать темы
Вы не можете отвечать на сообщения
Вы не можете редактировать свои сообщения
Вы не можете удалять свои сообщения
Вы не можете голосовать в опросах
Вы не можете прикреплять файлы к сообщениям
Вы можете скачивать файлы