Loading...
Error

Скачать Хроники Нарнии: Лев, колдунья и волшебный шкаф / The Chronicles of Narnia: The Lion, the Witch and the Wardrobe (Эндрю Адамсон / Andrew Adamson) [2005, Фэнтези, драма, приключения, семейный, BDRip] торрент без регистрации

 
Статистика раздачи
Размер:  2,17 GB   |    Скачан:  311 раз
Сидов:  1  [  0 KB/s  ]  
 
Автор Сообщение

Marsianka

[] 


Хроники Нарнии: Лев, колдунья и волшебный шкаф / The Chronicles of Narnia: The Lion, the Witch and the Wardrobe


Год выпуска: 2005
Выпущено: США
Жанр: Фэнтези, драма, приключения, семейный
Продолжительность: 02:22:51
Перевод: Профессиональный (полное дублирование)
Субтитры: русские , английские

Режиссер: Эндрю Адамсон / Andrew Adamson

В ролях: Джорджи Хенли, Скандар Кейнс, Уильям Моусли, Анна Попплуэлл, Тильда Свинтон, Джеймс МакЭвой, Джим Бродбент, Киран Шах, Джеймс Космо, Джуди МакИнтош

Описание: Четверых детей родители отправляют из Лондона в деревню, к старому профессору — другу семьи. В его доме дети обнаруживают таинственный платяной шкаф, посредством которого они попадают в сказочную страну Нарнию, где обитают фантастические люди, животные и существа.
Оказывается, что эта мирная страна находится под властью злой Колдуньи, из-за которой там — вечная зима. Дети должны помочь царю Аслану (Великому Льву, который много столетий назад основал Нарнию) победить Колдунью, разрушить заклинания и освободить жителей Нарнии.





General
Complete name : J:The.Chronicles.of.Narnia.chopper887.mkv
Format : Matroska
File size : 2.17 GiB
Duration : 2h 22mn
Overall bit rate : 2 179 Kbps
Movie name : chopper887
Encoded date : UTC 2010-04-01 13:59:54
Writing application : mkvmerge v3.0.0 ('Hang up your Hang-Ups') built on Dec 12 2009 15:20:35
Writing library : libebml v0.7.9 + libmatroska v0.8.1

Video
ID : 1
Format : AVC
Format/Info : Advanced Video Codec
Format profile : High@L4.1
Format settings, CABAC : Yes
Format settings, ReFrames : 8 frames
Muxing mode : Container profile=Unknown@4.1
Codec ID : V_MPEG4/ISO/AVC
Duration : 2h 22mn
Bit rate : 1 367 Kbps
Nominal bit rate : 1 409 Kbps
Width : 1 024 pixels
Height : 432 pixels
Display aspect ratio : 2.35:1
Frame rate : 23.976 fps
Resolution : 8 bits
Colorimetry : 4:2:0
Scan type : Progressive
Bits/(Pixel*Frame) : 0.129
Stream size : 1.36 GiB (63%)
Writing library : x264 core 80 r1376M 3feaec2
Encoding settings : cabac=1 / ref=8 / deblock=1:-1:0 / analyse=0x3:0x113 / me=umh / subme=9 / psy=1 / psy_rd=1.0:0.1 / mixed_ref=0 / me_range=24 / chroma_me=1 / trellis=2 / 8x8dct=1 / cqm=0 / deadzone=21,11 / fast_pskip=0 / chroma_qp_offset=-3 / threads=3 / sliced_threads=0 / nr=1 / decimate=0 / mbaff=0 / constrained_intra=0 / bframes=6 / b_pyramid=0 / b_adapt=2 / b_bias=0 / direct=1 / wpredb=0 / wpredp=0 / keyint=250 / keyint_min=25 / scenecut=40 / rc_lookahead=60 / rc=2pass / mbtree=1 / bitrate=1409 / ratetol=1.0 / qcomp=0.60 / qpmin=10 / qpmax=51 / qpstep=4 / cplxblur=20.0 / qblur=0.5 / ip_ratio=1.40 / aq=1:1.00
Language : English

Audio #1
ID : 2
Format : AC-3
Format/Info : Audio Coding 3
Codec ID : A_AC3
Duration : 2h 22mn
Bit rate mode : Constant
Bit rate : 384 Kbps
Channel(s) : 6 channels
Channel positions : Front: L C R, Surround: L R, LFE
Sampling rate : 48.0 KHz
Stream size : 392 MiB (18%)

Audio #2
ID : 3
Format : AC-3
Format/Info : Audio Coding 3
Codec ID : A_AC3
Duration : 2h 22mn
Bit rate mode : Constant
Bit rate : 384 Kbps
Channel(s) : 6 channels
Channel positions : Front: L C R, Surround: L R, LFE
Sampling rate : 48.0 KHz
Stream size : 392 MiB (18%)

Text #1
ID : 4
Format : UTF-8
Codec ID : S_TEXT/UTF8
Codec ID/Info : UTF-8 Plain Text

Text #2
ID : 5
Format : UTF-8
Codec ID : S_TEXT/UTF8
Codec ID/Info : UTF-8 Plain Text

Качество: BDRip-AVC(Исх. BD Remux)
Формат: MKV
Видео кодек: H.264
Аудио кодек: AC3
Видео: 1024x432 , 23,976 кадр/сек, 1367 Кбит/сек
Аудио: AC3 384 kbps 48000 Hz 6 ch RUS. AC3 384 kbps 48000 Hz 6 ch ENG











Скачать Хроники.Нарнии.Лев.колдунья.и.волшебный.шкаф.The.Chronicles.of.Narnia.The.Lion.the.Witch.and.the.Wardrobe.(Эндрю.Адамсон.Andrew.Adamson).[2005.Фэнтези.драма.приключения.семейный.BDRip].torrent без регистрации
Золото ЗОЛОТАЯ РАЗДАЧА! СКАЧАННОЕ НЕ ЗАСЧИТЫВАЕТСЯ! Золото
Дата: Зарегистрирован   [ Тип: внутренний ] Как тут cкачать?
MAGNET ссылка
MAGNET ссылка


Скачать .torrent

11 KB

Статус: проверено DHT
Скачан: торрент - 311 раз, раздача полностью - 791 раз
Размер: 2,17 GB
Оценка:  - (Голосов: 0)
Поблагодарили: 2
Поделиться ссылкой на эту раздачу с друзьями:
В контактеFacebookОдноклассникиTwitterLivejournalМой МирLiveinternet
 

 

enema-bandit

[] 

Спасибо! ab
 
Показать сообщения:    


Вы не можете начинать темы
Вы не можете отвечать на сообщения
Вы не можете редактировать свои сообщения
Вы не можете удалять свои сообщения
Вы не можете голосовать в опросах
Вы не можете прикреплять файлы к сообщениям
Вы можете скачивать файлы