Loading...
Error

Скачать Граница тени / The Shadow Line (Полный 1-ый сезон) (Хьюго Блик) [2011, детектив, драма, криминал, HDTVRip] [DVO] (Jetvis Studio) торрент без регистрации

 
Статистика раздачи
Размер:  3,92 GB   |    Скачан:  187 раз
Сидов:  1  [  0 KB/s  ]  
 
Автор Сообщение

leon030982

[] 


Граница тени / The Shadow Line

Страна: Великобритания
Режиссер: Хьюго Блик
Жанр: детектив, драма, криминал
Дата выпуска: 2011
Продолжительность: 00:59:00
Перевод: Двухголосый закадровый - Jetvis Studio
Русские субтитры: Нет

Релиз:
Озвучка: Студия "Jetvis"
Роли озвучивали: Иван "Jet" Назаров и Анастасия "Stacy" Домнина.

Перевод: vipere
Редактор: volverine73 (Илья Белкин)

Описание: Британский детектив, рассчитанный на интеллектуальную аудиторию. В сериале рассказывается о расследовании убийства, которое проводится двумя противоборствующими сторонами - полицией и преступниками, и противопоставляются методы, которые они при этом применяют.При этом внимание сфокусировано на реальной границе - человеческих качествах каждого персонажа, и насколько легко он может ее преступить.
http://multi-up.com/585305 (1-3 серии)
http://multi-up.com/622342 (4-7 серии, озвучено на проф. оборудование)
C:\Торрент\The.Shadow.Line.s01.Jetvis.Studio.360p\The.Shadow.Line.s01e01.Jetvis.Studio.avi
General
Complete name : C:\Торрент\The.Shadow.Line.s01.Jetvis.Studio.360p\The.Shadow.Line.s01e01.Jetvis.Studio.avi
Format : AVI
Format/Info : Audio Video Interleave
File size : 573 MiB
Duration : 58mn 45s
Overall bit rate : 1 365 Kbps
Writing application : VirtualDubMod 1.5.10.2 (build 2542/release)
Writing library : VirtualDubMod build 2542/release
Video #0
ID : 0
Format : MPEG-4 Visual
Format profile : AdvancedSimple@L5
Format settings, BVOP : Yes
Format settings, QPel : No
Format settings, GMC : No warppoints
Format settings, Matrix : Default (H.263)
Codec ID : XVID
Codec ID/Hint : XviD
Duration : 58mn 45s
Bit rate : 1 163 Kbps
Width : 624 pixels
Height : 352 pixels
Display aspect ratio : 16:9
Frame rate : 25.000 fps
Resolution : 24 bits
Colorimetry : 4:2:0
Scan type : Progressive
Bits/(Pixel*Frame) : 0.212
Stream size : 489 MiB (85%)
Writing library : XviD 1.2.1 (UTC 2008-12-04)
Audio #1
ID : 1
Format : AC-3
Format/Info : Audio Coding 3
Codec ID : 2000
Duration : 58mn 45s
Bit rate mode : Constant
Bit rate : 192 Kbps
Channel(s) : 2 channels
Channel positions : L R
Sampling rate : 48.0 KHz
Stream size : 80.7 MiB (14%)
Alignment : Split accross interleaves
Interleave, duration : 40 ms (1.00 video frame)
Interleave, preload duration : 500 ms
Качество видео: HDTVRip
Формат видео: AVI
Видео: XviD, 624x352 pixels, 25.000 fps, 1 163 Kbps, 0.212 (bit/pixel)
Аудио: 48 kHz, AC3, 2 ch, 192 Кбит/сек (RUS)



Скачать Граница.тени.The.Shadow.Line.(Полный.1-ый.сезон).(Хьюго.Блик).[2011.детектив.драма.криминал.HDTVRip].[DVO].(Jetvis.Studio).torrent без регистрации
Золото ЗОЛОТАЯ РАЗДАЧА! СКАЧАННОЕ НЕ ЗАСЧИТЫВАЕТСЯ! Золото
Дата: Зарегистрирован   [ Тип: внутренний ] Как тут cкачать?
MAGNET ссылка
MAGNET ссылка


Скачать .torrent

21 KB

Статус: проверено DHT
Скачан: торрент - 187 раз, раздача полностью - 132 раз
Размер: 3,92 GB
Оценка:  3 (Голосов: 2)
Поблагодарили: 5
Поделиться ссылкой на эту раздачу с друзьями:
В контактеFacebookОдноклассникиTwitterLivejournalМой МирLiveinternet
 

 

leon030982

[] 

меня хватило на 2 серии,как то затянуто очень британцы сняли bl
 

Kriss130013

[] 

Спасибо! Посмотрю.заценю.

Посмотрела.
Сериал для любителей спокойных фильмов.Рекомендую.
Для англичан я бы поставила 4.
 
Показать сообщения:    


Вы не можете начинать темы
Вы не можете отвечать на сообщения
Вы не можете редактировать свои сообщения
Вы не можете удалять свои сообщения
Вы не можете голосовать в опросах
Вы не можете прикреплять файлы к сообщениям
Вы можете скачивать файлы