Loading...
Error

Скачать Никсон / Nixon [Extended Edition] (Оливер Стоун) [1995, драма, биография, BDRip-AVC] [MVO] торрент без регистрации

 
Статистика раздачи
Размер:  2,9 GB   |    Скачан:  123 раза
Сидов:  1  [  0 KB/s  ]  
 
Автор Сообщение

Marsianka

[] 

Никсон / Nixon [Extended Edition] (1995) BDRip-AVC от PowerTracker

Жанр: драма, биография
Страна: США
Режиссер: Оливер Стоун
В ролях: Энтони Хопкинс, Джоан Аллен, Пауэрс Бут, Эд Харрис, Боб Хоскинс, Э. Г. Маршалл, Дэвид Пэймер, Дэвид Хайд Пирс, Пол Сорвино, Мэри Стинберген

Сюжет фильма: История Ричарда Никсона, бывшего президента Соединенных Штатов, президентский срок которого закончился с позором. Он стал единственным американским президентом, который сложил свои полномочия, чтобы избежать импичмента.

Мировая премьера: 20 декабря 1995



Продолжительность: 03:32:14
Качество видео: BDRip-AVC
Видео: кодек: x264, размер кадра: 1022x426, битрейт: 1760 кб/с, bit/pixel: 0.169
Аудио: язык: Русский , перевод: Профессиональный многоголосый закадровый (Первый канал), кодек: AC3 2.0, битрейт: 192.00 кб/с

&
Дорожка подогнана от театральной версии и содержат ~24 минуты врезок с озвучкой Ю. Немахова
Общее
Уникальный идентификатор : 233906438604899261323171196249603791632 (0xAFF8BDCE5171BB26AADC216A6BCF5B10)
Полное имя : D:Nixon.1995.BDRip-AVC.PT.mkv
Формат : Matroska
Версия формата : Version 2
Размер файла : 2,90 Гбайт
Продолжительность : 3 ч. 32 м.
Общий поток : 1954 Кбит/сек
Название фильма : Никсон / Nixon [EXTENDED] (1995) BDRip-AVC rip by rulya74
Дата кодирования : UTC 2012-03-02 05:13:35
Программа кодирования : mkvmerge v5.2.1 ('A Far Off Place') built on Jan 2 2012 23:21:10
Библиотека кодирования : libebml v1.2.3 + libmatroska v1.3.0

Видео
Идентификатор : 1
Формат : AVC
Формат/Информация : Advanced Video Codec
Профиль формата : High@L4.1
Параметр CABAC формата : Да
Параметр ReFrames формата : 9 кадров
Идентификатор кодека : V_MPEG4/ISO/AVC
Продолжительность : 3 ч. 32 м.
Битрейт : 1760 Кбит/сек
Ширина : 1022 пикселя
Высота : 426 пикселей
Соотношение сторон : 2,40:1
Частота кадров : 23,976 кадра/сек
Цветовое пространство : YUV
Субдискретизация насыщенности : 4:2:0
Битовая глубина : 8 бит
Тип развёртки : Прогрессивная
Бит/(Пиксели*Кадры) : 0.169
Размер потока : 2,55 Гбайт (88%)
Библиотека кодирования : x264 core 120 r2164 da19765
Настройки программы : cabac=1 / ref=9 / deblock=1:-2:-2 / analyse=0x3:0x113 / me=umh / subme=9 / psy=1 / psy_rd=1.00:0.00 / mixed_ref=1 / me_range=32 / chroma_me=1 / trellis=2 / 8x8dct=1 / cqm=0 / deadzone=21,11 / fast_pskip=1 / chroma_qp_offset=-2 / threads=5 / sliced_threads=0 / nr=0 / decimate=1 / interlaced=0 / bluray_compat=0 / constrained_intra=0 / bframes=8 / b_pyramid=2 / b_adapt=1 / b_bias=0 / direct=3 / weightb=1 / open_gop=0 / weightp=2 / keyint=240 / keyint_min=23 / scenecut=40 / intra_refresh=0 / rc=2pass / mbtree=0 / bitrate=1760 / ratetol=1.0 / qcomp=0.60 / qpmin=10 / qpmax=51 / qpstep=4 / cplxblur=20.0 / qblur=0.5 / ip_ratio=1.40 / pb_ratio=1.30 / aq=1:1.00
Default : Да
Forced : Нет

Аудио
Идентификатор : 2
Формат : AC-3
Формат/Информация : Audio Coding 3
Расширение режима : CM (complete main)
Идентификатор кодека : A_AC3
Продолжительность : 3 ч. 32 м.
Вид битрейта : Постоянный
Битрейт : 192 Кбит/сек
Каналы : 2 канала
Расположение каналов : Front: L R
Частота : 48,0 КГц
Битовая глубина : 16 бит
Метод сжатия : С потерями
Размер потока : 291 Мбайт (10%)
Заголовок : Многоголосый закадровый (Первый канал)
Язык : Russian
Default : Да
Forced : Нет



Скачать Никсон.Nixon.[Extended.Edition].(Оливер.Стоун).[1995.драма.биография.BDRip-AVC].[MVO].torrent без регистрации
Золото ЗОЛОТАЯ РАЗДАЧА! СКАЧАННОЕ НЕ ЗАСЧИТЫВАЕТСЯ! Золото
Дата: Зарегистрирован   [ Тип: внутренний ] Как тут cкачать?
MAGNET ссылка
MAGNET ссылка


Скачать .torrent

15 KB

Статус: проверено DHT
Скачан: торрент - 123 раз, раздача полностью - 9 раз
Размер: 2,9 GB
Оценка:  - (Голосов: 0)
Поблагодарили: 0
Поделиться ссылкой на эту раздачу с друзьями:
В контактеFacebookОдноклассникиTwitterLivejournalМой МирLiveinternet
 

 
Показать сообщения:    


Вы не можете начинать темы
Вы не можете отвечать на сообщения
Вы не можете редактировать свои сообщения
Вы не можете удалять свои сообщения
Вы не можете голосовать в опросах
Вы не можете прикреплять файлы к сообщениям
Вы можете скачивать файлы