Loading...
Error

Скачать Кобра / Cobra (Сезон 1 полный) (Брэд Тернер) [1993, Боевик, 4хDVD9 (Custom)] [DVO] [Видеофильм] торрент без регистрации

 
Статистика раздачи
Размер:  28,58 GB   |    Скачан:  182 раза
Сидов:  1  [  0 KB/s  ]   Личеров:  1  [  0 KB/s  ]  
 
Автор Сообщение

leon030982

[] 


Кобра / Cobra

Год выпуска: 1993
Страна: Канада
Жанр: Боевик
Продолжительность серии: 00:44:00
Продолжительность четырёх дисков : 15:58:26
Перевод: Профессиональный двухголосый закадровый (Видеофильм)
Субтитры: Нет

Режиссёр: Брэд Тернер/Brad Turner

В ролях: Майкл Дудикофф, Эллисон Хоссак, Джеймс Толкан и др.

Описание: Детективнoе агентство "Кобра" помогает людям, которым не могут помочь государственные службы, решила привлечь на свою сторону
опытного спецназовца -"морского тюленя", ушедшего в самоволку после отказа взорвать вражеский командный центр,
который располагался в гражданском здании, Роберта Скэндела Джексона младшего (Майкл Дудикофф).
"Кобра" находит его в заснеженной деревушке Аляски. Когда агент "Кобры" прибыл к Роберту на переговоры,
то на его глазах Скэндела серьёзно ранили в лицо и он потерял сознание.
Роберт был отправлен в больницу и "Кобра" взяла на себя все расходы на его лечение. Когда Скэндел пришёл в себя, то у него было уже другое лицо,
но он и не думал, что вместе с ним изменится и вся его жизнь...
Инициатором этого проекта выступили Voitec1989 и Catshadow. Исходник приобрёл Catshadow, звуковые дорожки с его раздачи.
Изменено меню, добавлены звуковые дорожки с русским переводом.
PgcDemux
Vegas Pro 9.0
DVD-lab PRO 2
СЕМПЛ
СЕМПЛ 2

Качество: DVD9
Формат: DVD-Video
Видео кодек: MPEG2
Аудио кодек: AC3
Видео: NTSC 4:3 (720x480) VBR, ~9000 kbps, ~0.370 bit/pixel
Аудио 1: AC3, 2/0 (L,R) ch, 192 kbps
Аудио 2: AC3, 2/0 (L,R) ch, 192 kbps
Title: 1 диск
Size: 6.56 Gb ( 6 883 870,00 KBytes ) - DVD-9
Enabled regions: 1, 2, 3, 4, 5, 6, 7, 8

VTS_01 :
Play Length: 03:40:03+00:00:30+00:00:06
Video: NTSC 4:3 (720x480) VBR
Audio:
Russian, AC3, 2/0 (L,R) ch, 192 kbps, Delay 0 mSec
English, AC3, 2/0 (L,R) ch, 192 kbps, Delay 0 mSec

* Menus Information *

VIDEO_TS Menu
Video:
NTSC 4:3 (720x480) VBR
English Language Unit :
Title Menu

VTS_01 Menu
Video:
NTSC 4:3 (720x480) VBR
Audio:
Not specified (Dolby AC3, 2 ch)
English Language Unit :
Root Menu
Общее
Полное имя : D:\Сериалы\Кобра (1993)\1 диск\VIDEO_TS\VIDEO_TS.BUP
Формат : DVD Video
Профиль формата : Menu
Размер файла : 12,0 Кбайт
Режим общего битрейта : Переменный

Видео
Идентификатор : 224 (0xE0)
Формат : MPEG Video
Версия формата : Version 2
Вид битрейта : Переменный
Ширина : 720 пикселей
Высота : 480 пикселей
Соотношение сторон : 4:3
Частота кадров : 29,970 кадров/сек
Стандарт вещания : NTSC
Метод сжатия : С потерями

Общее
Полное имя : D:\Сериалы\Кобра (1993)\1 диск\VIDEO_TS\VIDEO_TS.IFO
Формат : DVD Video
Профиль формата : Menu
Размер файла : 12,0 Кбайт
Режим общего битрейта : Переменный

Видео
Идентификатор : 224 (0xE0)
Формат : MPEG Video
Версия формата : Version 2
Вид битрейта : Переменный
Ширина : 720 пикселей
Высота : 480 пикселей
Соотношение сторон : 4:3
Частота кадров : 29,970 кадров/сек
Стандарт вещания : NTSC
Метод сжатия : С потерями

Общее
Полное имя : D:\Сериалы\Кобра (1993)\1 диск\VIDEO_TS\VIDEO_TS.VOB
Формат : MPEG-PS
Размер файла : 40,0 Кбайт
Продолжительность : 33 мс.
Режим общего битрейта : Переменный
Общий поток : 9930 Кбит/сек

Видео
Идентификатор : 224 (0xE0)
Формат : MPEG Video
Версия формата : Version 2
Профиль формата : Main@Main
Параметр BVOP формата : Нет
Параметр матрицы формата : По умолчанию
Продолжительность : 33 мс.
Вид битрейта : Переменный
Максимальный битрейт : 9000 Кбит/сек
Ширина : 720 пикселей
Высота : 480 пикселей
Соотношение сторон : 4:3
Частота кадров : 29,970 кадров/сек
Стандарт вещания : NTSC
Цветовое пространство : YUV
Субдискретизация насыщенности : 4:2:0
Битовая глубина : 8 бит
Тип развёртки : Прогрессивная
Порядок развёртки : Верхнее поле первое
Метод сжатия : С потерями
Основные цвета : SMPTE 170M
Характеристики трансфера : SMPTE 170M
Коэффициенты матрицы : SMPTE 170M

Меню

Общее
Полное имя : D:\Сериалы\Кобра (1993)\1 диск\VIDEO_TS\VTS_01_0.BUP
Формат : DVD Video
Профиль формата : Program
Размер файла : 126 Кбайт
Продолжительность : 3 ч. 40 м.
Режим общего битрейта : Переменный
Общий поток : 78 бит/сек

Видео
Идентификатор : 224 (0xE0)
Формат : MPEG Video
Версия формата : Version 2
Продолжительность : 3 ч. 40 м.
Вид битрейта : Переменный
Ширина : 720 пикселей
Высота : 480 пикселей
Соотношение сторон : 4:3
Частота кадров : 29,970 кадров/сек
Стандарт вещания : NTSC
Метод сжатия : С потерями

Аудио #1
Идентификатор : 128 (0x80)
Формат : AC-3
Формат/Информация : Audio Coding 3
Продолжительность : 3 ч. 40 м.
Каналы : 2 канала
Частота : 48,0 КГц
Метод сжатия : С потерями
Язык : Russian

Аудио #2
Идентификатор : 129 (0x81)
Формат : AC-3
Формат/Информация : Audio Coding 3
Продолжительность : 3 ч. 40 м.
Каналы : 2 канала
Частота : 48,0 КГц
Метод сжатия : С потерями
Язык : English

Меню #1
Продолжительность : 3 ч. 40 м.
00:00:00.000 : Chapter 1
00:44:27.300 : Chapter 2
01:27:11.000 : Chapter 3
02:11:27.500 : Chapter 4
02:56:57.700 : Chapter 5
List (Audio) : 0 / 1

Меню #2
Продолжительность : 30 с.
00:00:00.000 : Chapter 1
00:00:10.000 : Chapter 2
00:00:20.000 : Chapter 3

Общее
Полное имя : D:\Сериалы\Кобра (1993)\1 диск\VIDEO_TS\VTS_01_0.IFO
Формат : DVD Video
Профиль формата : Program
Размер файла : 126 Кбайт
Продолжительность : 3 ч. 40 м.
Режим общего битрейта : Переменный
Общий поток : 78 бит/сек

Видео
Идентификатор : 224 (0xE0)
Формат : MPEG Video
Версия формата : Version 2
Продолжительность : 3 ч. 40 м.
Вид битрейта : Переменный
Ширина : 720 пикселей
Высота : 480 пикселей
Соотношение сторон : 4:3
Частота кадров : 29,970 кадров/сек
Стандарт вещания : NTSC
Метод сжатия : С потерями

Аудио #1
Идентификатор : 128 (0x80)
Формат : AC-3
Формат/Информация : Audio Coding 3
Продолжительность : 3 ч. 40 м.
Каналы : 2 канала
Частота : 48,0 КГц
Метод сжатия : С потерями
Язык : Russian

Аудио #2
Идентификатор : 129 (0x81)
Формат : AC-3
Формат/Информация : Audio Coding 3
Продолжительность : 3 ч. 40 м.
Каналы : 2 канала
Частота : 48,0 КГц
Метод сжатия : С потерями
Язык : English

Меню #1
Продолжительность : 3 ч. 40 м.
00:00:00.000 : Chapter 1
00:44:27.300 : Chapter 2
01:27:11.000 : Chapter 3
02:11:27.500 : Chapter 4
02:56:57.700 : Chapter 5
List (Audio) : 0 / 1

Меню #2
Продолжительность : 30 с.
00:00:00.000 : Chapter 1
00:00:10.000 : Chapter 2
00:00:20.000 : Chapter 3

Общее
Полное имя : D:\Сериалы\Кобра (1993)\1 диск\VIDEO_TS\VTS_01_0.VOB
Формат : MPEG-PS
Размер файла : 10,3 Мбайт
Продолжительность : 21 с.
Режим общего битрейта : Переменный
Общий поток : 4107 Кбит/сек

Видео
Идентификатор : 224 (0xE0)
Формат : MPEG Video
Версия формата : Version 2
Профиль формата : Main@Main
Параметр BVOP формата : Да
Параметр матрицы формата : По умолчанию
Продолжительность : 21 с.
Вид битрейта : Переменный
Битрейт : 3834 Кбит/сек
Ширина : 720 пикселей
Высота : 480 пикселей
Соотношение сторон : 4:3
Частота кадров : 29,970 кадров/сек
Стандарт вещания : NTSC
Цветовое пространство : YUV
Субдискретизация насыщенности : 4:2:0
Битовая глубина : 8 бит
Тип развёртки : Прогрессивная
Метод сжатия : С потерями
Бит/(Пиксели*Кадры) : 0.370
Размер потока : 9,62 Мбайт (93%)
Основные цвета : BT.470-2 system M
Характеристики трансфера : BT.470-2 System M
Коэффициенты матрицы : BT.470-2 System B, BT.470-2 System G

Аудио
Идентификатор : 189 (0xBD)-128 (0x80)
Формат : AC-3
Формат/Информация : Audio Coding 3
Расширение режима : CM (complete main)
Режим смешивания : DVD-Video
Продолжительность : 20 с.
Вид битрейта : Постоянный
Битрейт : 192 Кбит/сек
Каналы : 2 канала
Расположение каналов : Front: L R
Частота : 48,0 КГц
Битовая глубина : 16 бит
Метод сжатия : С потерями
Размер потока : 491 Кбайт (5%)

Текст
Идентификатор : 189 (0xBD)-32 (0x20)
Формат : RLE
Формат/Информация : Run-length encoding
Режим смешивания : DVD-Video

Меню

Общее
Полное имя : D:\Сериалы\Кобра (1993)\1 диск\VIDEO_TS\VTS_01_1.VOB
Формат : MPEG-PS
Размер файла : 1000 Мбайт
Продолжительность : 32 м.
Режим общего битрейта : Переменный
Общий поток : 4281 Кбит/сек

Видео
Идентификатор : 224 (0xE0)
Формат : MPEG Video
Версия формата : Version 2
Профиль формата : Main@Main
Параметр BVOP формата : Да
Параметр матрицы формата : По умолчанию
Параметр GOP формата : M=3, N=15
Продолжительность : 32 м.
Вид битрейта : Переменный
Битрейт : 3812 Кбит/сек
Максимальный битрейт : 5430 Кбит/сек
Ширина : 720 пикселей
Высота : 480 пикселей
Соотношение сторон : 4:3
Частота кадров : 29,970 кадров/сек
Стандарт вещания : NTSC
Цветовое пространство : YUV
Субдискретизация насыщенности : 4:2:0
Битовая глубина : 8 бит
Тип развёртки : Чересстрочная
Порядок развёртки : Нижнее поле первое
Метод сжатия : С потерями
Бит/(Пиксели*Кадры) : 0.368
Размер потока : 891 Мбайт (89%)

Аудио #1
Идентификатор : 189 (0xBD)-128 (0x80)
Формат : AC-3
Формат/Информация : Audio Coding 3
Расширение режима : CM (complete main)
Режим смешивания : DVD-Video
Продолжительность : 32 м.
Вид битрейта : Постоянный
Битрейт : 192 Кбит/сек
Каналы : 2 канала
Расположение каналов : Front: L R
Частота : 48,0 КГц
Битовая глубина : 16 бит
Метод сжатия : С потерями
Размер потока : 44,9 Мбайт (4%)

Аудио #2
Идентификатор : 189 (0xBD)-129 (0x81)
Формат : AC-3
Формат/Информация : Audio Coding 3
Расширение режима : CM (complete main)
Режим смешивания : DVD-Video
Продолжительность : 32 м.
Вид битрейта : Постоянный
Битрейт : 192 Кбит/сек
Каналы : 2 канала
Расположение каналов : Front: L R
Частота : 48,0 КГц
Битовая глубина : 16 бит
Метод сжатия : С потерями
Размер потока : 44,9 Мбайт (4%)

Меню

Общее
Полное имя : D:\Сериалы\Кобра (1993)\1 диск\VIDEO_TS\VTS_01_2.VOB
Формат : MPEG-PS
Размер файла : 1000 Мбайт
Продолжительность : 32 м.
Режим общего битрейта : Переменный
Общий поток : 4240 Кбит/сек

Видео
Идентификатор : 224 (0xE0)
Формат : MPEG Video
Версия формата : Version 2
Профиль формата : Main@Main
Параметр BVOP формата : Да
Параметр матрицы формата : По умолчанию
Параметр GOP формата : M=3, N=15
Продолжительность : 32 м.
Вид битрейта : Переменный
Битрейт : 3771 Кбит/сек
Максимальный битрейт : 5430 Кбит/сек
Ширина : 720 пикселей
Высота : 480 пикселей
Соотношение сторон : 4:3
Частота кадров : 29,970 кадров/сек
Стандарт вещания : NTSC
Цветовое пространство : YUV
Субдискретизация насыщенности : 4:2:0
Битовая глубина : 8 бит
Тип развёртки : Чересстрочная
Порядок развёртки : Нижнее поле первое
Метод сжатия : С потерями
Бит/(Пиксели*Кадры) : 0.364
Размер потока : 889 Мбайт (89%)

Аудио #1
Идентификатор : 189 (0xBD)-128 (0x80)
Формат : AC-3
Формат/Информация : Audio Coding 3
Расширение режима : CM (complete main)
Режим смешивания : DVD-Video
Продолжительность : 32 м.
Вид битрейта : Постоянный
Битрейт : 192 Кбит/сек
Каналы : 2 канала
Расположение каналов : Front: L R
Частота : 48,0 КГц
Битовая глубина : 16 бит
Метод сжатия : С потерями
Задержка видео : -150 мс.
Размер потока : 45,3 Мбайт (5%)

Аудио #2
Идентификатор : 189 (0xBD)-129 (0x81)
Формат : AC-3
Формат/Информация : Audio Coding 3
Расширение режима : CM (complete main)
Режим смешивания : DVD-Video
Продолжительность : 32 м.
Вид битрейта : Постоянный
Битрейт : 192 Кбит/сек
Каналы : 2 канала
Расположение каналов : Front: L R
Частота : 48,0 КГц
Битовая глубина : 16 бит
Метод сжатия : С потерями
Задержка видео : -150 мс.
Размер потока : 45,3 Мбайт (5%)

Меню

Общее
Полное имя : D:\Сериалы\Кобра (1993)\1 диск\VIDEO_TS\VTS_01_3.VOB
Формат : MPEG-PS
Размер файла : 1000 Мбайт
Продолжительность : 32 м.
Режим общего битрейта : Переменный
Общий поток : 4239 Кбит/сек

Видео
Идентификатор : 224 (0xE0)
Формат : MPEG Video
Версия формата : Version 2
Профиль формата : Main@Main
Параметр BVOP формата : Да
Параметр матрицы формата : По умолчанию
Параметр GOP формата : M=3, N=15
Продолжительность : 32 м.
Вид битрейта : Переменный
Битрейт : 3770 Кбит/сек
Максимальный битрейт : 5430 Кбит/сек
Ширина : 720 пикселей
Высота : 480 пикселей
Соотношение сторон : 4:3
Частота кадров : 29,970 кадров/сек
Стандарт вещания : NTSC
Цветовое пространство : YUV
Субдискретизация насыщенности : 4:2:0
Битовая глубина : 8 бит
Тип развёртки : Чересстрочная
Порядок развёртки : Нижнее поле первое
Метод сжатия : С потерями
Бит/(Пиксели*Кадры) : 0.364
Размер потока : 890 Мбайт (89%)

Аудио #1
Идентификатор : 189 (0xBD)-128 (0x80)
Формат : AC-3
Формат/Информация : Audio Coding 3
Расширение режима : CM (complete main)
Режим смешивания : DVD-Video
Продолжительность : 32 м.
Вид битрейта : Постоянный
Битрейт : 192 Кбит/сек
Каналы : 2 канала
Расположение каналов : Front: L R
Частота : 48,0 КГц
Битовая глубина : 16 бит
Метод сжатия : С потерями
Задержка видео : -189 мс.
Размер потока : 45,3 Мбайт (5%)

Аудио #2
Идентификатор : 189 (0xBD)-129 (0x81)
Формат : AC-3
Формат/Информация : Audio Coding 3
Расширение режима : CM (complete main)
Режим смешивания : DVD-Video
Продолжительность : 32 м.
Вид битрейта : Постоянный
Битрейт : 192 Кбит/сек
Каналы : 2 канала
Расположение каналов : Front: L R
Частота : 48,0 КГц
Битовая глубина : 16 бит
Метод сжатия : С потерями
Задержка видео : -189 мс.
Размер потока : 45,3 Мбайт (5%)

Меню

Общее
Полное имя : D:\Сериалы\Кобра (1993)\1 диск\VIDEO_TS\VTS_01_4.VOB
Формат : MPEG-PS
Размер файла : 1000 Мбайт
Продолжительность : 32 м.
Режим общего битрейта : Переменный
Общий поток : 4263 Кбит/сек

Видео
Идентификатор : 224 (0xE0)
Формат : MPEG Video
Версия формата : Version 2
Профиль формата : Main@Main
Параметр BVOP формата : Да
Параметр матрицы формата : По умолчанию
Параметр GOP формата : M=3, N=15
Продолжительность : 32 м.
Вид битрейта : Переменный
Битрейт : 3795 Кбит/сек
Максимальный битрейт : 5430 Кбит/сек
Ширина : 720 пикселей
Высота : 480 пикселей
Соотношение сторон : 4:3
Частота кадров : 29,970 кадров/сек
Стандарт вещания : NTSC
Цветовое пространство : YUV
Субдискретизация насыщенности : 4:2:0
Битовая глубина : 8 бит
Тип развёртки : Чересстрочная
Порядок развёртки : Нижнее поле первое
Метод сжатия : С потерями
Бит/(Пиксели*Кадры) : 0.366
Размер потока : 890 Мбайт (89%)

Аудио #1
Идентификатор : 189 (0xBD)-128 (0x80)
Формат : AC-3
Формат/Информация : Audio Coding 3
Расширение режима : CM (complete main)
Режим смешивания : DVD-Video
Продолжительность : 32 м.
Вид битрейта : Постоянный
Битрейт : 192 Кбит/сек
Каналы : 2 канала
Расположение каналов : Front: L R
Частота : 48,0 КГц
Битовая глубина : 16 бит
Метод сжатия : С потерями
Задержка видео : -167 мс.
Размер потока : 45,0 Мбайт (5%)

Аудио #2
Идентификатор : 189 (0xBD)-129 (0x81)
Формат : AC-3
Формат/Информация : Audio Coding 3
Расширение режима : CM (complete main)
Режим смешивания : DVD-Video
Продолжительность : 32 м.
Вид битрейта : Постоянный
Битрейт : 192 Кбит/сек
Каналы : 2 канала
Расположение каналов : Front: L R
Частота : 48,0 КГц
Битовая глубина : 16 бит
Метод сжатия : С потерями
Задержка видео : -167 мс.
Размер потока : 45,0 Мбайт (5%)

Меню

Общее
Полное имя : D:\Сериалы\Кобра (1993)\1 диск\VIDEO_TS\VTS_01_5.VOB
Формат : MPEG-PS
Размер файла : 1000 Мбайт
Продолжительность : 32 м.
Режим общего битрейта : Переменный
Общий поток : 4286 Кбит/сек

Видео
Идентификатор : 224 (0xE0)
Формат : MPEG Video
Версия формата : Version 2
Профиль формата : Main@Main
Параметр BVOP формата : Да
Параметр матрицы формата : По умолчанию
Параметр GOP формата : M=3, N=15
Продолжительность : 32 м.
Вид битрейта : Переменный
Битрейт : 3817 Кбит/сек
Максимальный битрейт : 5430 Кбит/сек
Ширина : 720 пикселей
Высота : 480 пикселей
Соотношение сторон : 4:3
Частота кадров : 29,970 кадров/сек
Стандарт вещания : NTSC
Цветовое пространство : YUV
Субдискретизация насыщенности : 4:2:0
Битовая глубина : 8 бит
Тип развёртки : Чересстрочная
Порядок развёртки : Нижнее поле первое
Метод сжатия : С потерями
Бит/(Пиксели*Кадры) : 0.368
Размер потока : 890 Мбайт (89%)

Аудио #1
Идентификатор : 189 (0xBD)-128 (0x80)
Формат : AC-3
Формат/Информация : Audio Coding 3
Расширение режима : CM (complete main)
Режим смешивания : DVD-Video
Продолжительность : 32 м.
Вид битрейта : Постоянный
Битрейт : 192 Кбит/сек
Каналы : 2 канала
Расположение каналов : Front: L R
Частота : 48,0 КГц
Битовая глубина : 16 бит
Метод сжатия : С потерями
Задержка видео : -197 мс.
Размер потока : 44,8 Мбайт (4%)

Аудио #2
Идентификатор : 189 (0xBD)-129 (0x81)
Формат : AC-3
Формат/Информация : Audio Coding 3
Расширение режима : CM (complete main)
Режим смешивания : DVD-Video
Продолжительность : 32 м.
Вид битрейта : Постоянный
Битрейт : 192 Кбит/сек
Каналы : 2 канала
Расположение каналов : Front: L R
Частота : 48,0 КГц
Битовая глубина : 16 бит
Метод сжатия : С потерями
Задержка видео : -197 мс.
Размер потока : 44,8 Мбайт (4%)

Меню

Общее
Полное имя : D:\Сериалы\Кобра (1993)\1 диск\VIDEO_TS\VTS_01_6.VOB
Формат : MPEG-PS
Размер файла : 1000 Мбайт
Продолжительность : 32 м.
Режим общего битрейта : Переменный
Общий поток : 4251 Кбит/сек

Видео
Идентификатор : 224 (0xE0)
Формат : MPEG Video
Версия формата : Version 2
Профиль формата : Main@Main
Параметр BVOP формата : Да
Параметр матрицы формата : По умолчанию
Параметр GOP формата : M=3, N=15
Продолжительность : 32 м.
Вид битрейта : Переменный
Битрейт : 3782 Кбит/сек
Максимальный битрейт : 5430 Кбит/сек
Ширина : 720 пикселей
Высота : 480 пикселей
Соотношение сторон : 4:3
Частота кадров : 29,970 кадров/сек
Стандарт вещания : NTSC
Цветовое пространство : YUV
Субдискретизация насыщенности : 4:2:0
Битовая глубина : 8 бит
Тип развёртки : Чересстрочная
Порядок развёртки : Нижнее поле первое
Метод сжатия : С потерями
Бит/(Пиксели*Кадры) : 0.365
Размер потока : 890 Мбайт (89%)

Аудио #1
Идентификатор : 189 (0xBD)-128 (0x80)
Формат : AC-3
Формат/Информация : Audio Coding 3
Расширение режима : CM (complete main)
Режим смешивания : DVD-Video
Продолжительность : 32 м.
Вид битрейта : Постоянный
Битрейт : 192 Кбит/сек
Каналы : 2 канала
Расположение каналов : Front: L R
Частота : 48,0 КГц
Битовая глубина : 16 бит
Метод сжатия : С потерями
Задержка видео : -191 мс.
Размер потока : 45,2 Мбайт (5%)

Аудио #2
Идентификатор : 189 (0xBD)-129 (0x81)
Формат : AC-3
Формат/Информация : Audio Coding 3
Расширение режима : CM (complete main)
Режим смешивания : DVD-Video
Продолжительность : 32 м.
Вид битрейта : Постоянный
Битрейт : 192 Кбит/сек
Каналы : 2 канала
Расположение каналов : Front: L R
Частота : 48,0 КГц
Битовая глубина : 16 бит
Метод сжатия : С потерями
Задержка видео : -191 мс.
Размер потока : 45,2 Мбайт (5%)

Меню

Общее
Полное имя : D:\Сериалы\Кобра (1993)\1 диск\VIDEO_TS\VTS_01_7.VOB
Формат : MPEG-PS
Размер файла : 712 Мбайт
Продолжительность : 40 м.
Режим общего битрейта : Переменный
Общий поток : 2470 Кбит/сек

Видео
Идентификатор : 224 (0xE0)
Формат : MPEG Video
Версия формата : Version 2
Профиль формата : Main@Main
Параметр BVOP формата : Да
Параметр матрицы формата : По умолчанию
Параметр GOP формата : M=3, N=15
Продолжительность : 40 м.
Вид битрейта : Переменный
Битрейт : 2037 Кбит/сек
Максимальный битрейт : 5430 Кбит/сек
Ширина : 720 пикселей
Высота : 480 пикселей
Соотношение сторон : 4:3
Частота кадров : 29,970 кадров/сек
Стандарт вещания : NTSC
Цветовое пространство : YUV
Субдискретизация насыщенности : 4:2:0
Битовая глубина : 8 бит
Тип развёртки : Чересстрочная
Порядок развёртки : Нижнее поле первое
Метод сжатия : С потерями
Бит/(Пиксели*Кадры) : 0.197
Размер потока : 587 Мбайт (82%)

Аудио #1
Идентификатор : 189 (0xBD)-128 (0x80)
Формат : AC-3
Формат/Информация : Audio Coding 3
Расширение режима : CM (complete main)
Режим смешивания : DVD-Video
Продолжительность : 40 м.
Вид битрейта : Постоянный
Битрейт : 192 Кбит/сек
Каналы : 2 канала
Расположение каналов : Front: L R
Частота : 48,0 КГц
Битовая глубина : 16 бит
Метод сжатия : С потерями
Задержка видео : -198 мс.
Размер потока : 55,3 Мбайт (8%)

Аудио #2
Идентификатор : 189 (0xBD)-129 (0x81)
Формат : AC-3
Формат/Информация : Audio Coding 3
Расширение режима : CM (complete main)
Режим смешивания : DVD-Video
Продолжительность : 40 м.
Вид битрейта : Постоянный
Битрейт : 192 Кбит/сек
Каналы : 2 канала
Расположение каналов : Front: L R
Частота : 48,0 КГц
Битовая глубина : 16 бит
Метод сжатия : С потерями
Задержка видео : -198 мс.
Размер потока : 55,3 Мбайт (8%)

Меню



Скачать Кобра.Cobra.(Сезон.1.полный).(Брэд.Тернер).[1993.Боевик.4хDVD9.(Custom)].[DVO].[Видеофильм].torrent без регистрации
Золото ЗОЛОТАЯ РАЗДАЧА! СКАЧАННОЕ НЕ ЗАСЧИТЫВАЕТСЯ! Золото
Дата: Зарегистрирован   [ Тип: внутренний ] Как тут cкачать?
MAGNET ссылка
MAGNET ссылка


Скачать .torrent

76 KB

Статус: проверено DHT
Скачан: торрент - 182 раз, раздача полностью - 12 раз
Размер: 28,58 GB
Оценка:  - (Голосов: 0)
Поблагодарили: 1
Поделиться ссылкой на эту раздачу с друзьями:
В контактеFacebookОдноклассникиTwitterLivejournalМой МирLiveinternet
 

 
Показать сообщения:    


Вы не можете начинать темы
Вы не можете отвечать на сообщения
Вы не можете редактировать свои сообщения
Вы не можете удалять свои сообщения
Вы не можете голосовать в опросах
Вы не можете прикреплять файлы к сообщениям
Вы можете скачивать файлы