Loading...
Error

Скачать Последний враг / The Last Enemy (Сезон 1 ) (Айэйн Б. МакДональд) [2008, триллер, драма, DVDRip] [VO] [Синица Сергей ака ROLLINGHEAD] торрент без регистрации

 
Статистика раздачи
Размер:  3,84 GB   |    Скачан:  162 раза
Сидов:  1  [  0 KB/s  ]  
 
Автор Сообщение

leon030982

[] 


Последний враг / The Last Enemy
Год выпуска: 2008
Страна: Великобритания
Жанр: триллер, драма
Продолжительность: 00:57:00

Перевод: Любительский одноголосый закадровый (Синица Сергей ака ROLLINGHEAD)
Русские субтитры: нет
Субтитры: отсутствуют

Режиссёр: Айэйн Б. МакДональд

В ролях: Бенедикт Камбербэтч, Анамария Маринка, Роберт Карлайл, Макс Бисли, Ева Бертистл

Описание: После теракта на одной из станций лондонского метро британские власти устанавливают в стране тоталитарный режим. Население отчаянно боится террористов, поэтому не возражает, когда каждый гражданин получает обязательный электронный жетон, отслеживающий его местонахождение в любой момент дня и ночи. Большой Брат уже проснулся, но никто против этого не возражает, все боятся.

Сэмпл: сэмпл

Качество: DVDRip
Формат: AVI
Видео кодек: XviD
Аудио кодек: MP3
Видео: 640x352 (16.9), 25.000 fps, XviD MPEG-4 1500 kbps, 0.272 bit/pixel
Аудио: [RU] MP3, 48 kHz, 2 ch, 192 kbps
Аудио 2: [EN] AC3, 48 kHz, 2 ch, 192 kbps
Формат : AVI
Формат/Информация : Audio Video Interleave
Размер файла : 778 Мбайт
Продолжительность : 55 м.
Общий поток : 1962 Кбит/сек
Программа кодирования : VirtualDubMod 1.5.10.1 (build 2439/release)
Библиотека кодирования : VirtualDubMod build 2439/release

Видео
Идентификатор : 0
Формат : MPEG-4 Visual
Профиль формата : Advanced Simple@L5
Параметр BVOP формата : 1
Параметр QPel формата : Нет
Параметр GMC формата : Без точки перехода
Параметр матрицы формата : Default (H.263)
Режим смешивания : Сжатый битовый поток
Идентификатор кодека : XVID
Идентификатор кодека/Подсказка : XviD
Продолжительность : 55 м.
Битрейт : 1563 Кбит/сек
Ширина : 640 пикселей
Высота : 352 пикселя
Соотношение сторон : 16:9
Частота кадров : 25,000 кадров/сек
Цветовое пространство : YUV
Субдискретизация насыщенности : 4:2:0
Битовая глубина : 8 бит
Тип развёртки : Прогрессивная
Метод сжатия : С потерями
Бит/(Пиксели*Кадры) : 0.278
Размер потока : 620 Мбайт (80%)
Библиотека кодирования : XviD 1.1.2 (UTC 2006-11-01)

Аудио #1
Идентификатор : 1
Формат : MPEG Audio
Версия формата : Version 1
Профиль формата : Layer 3
Режим : Joint stereo
Идентификатор кодека : 55
Идентификатор кодека/Подсказка : MP3
Продолжительность : 55 м.
Вид битрейта : Постоянный
Битрейт : 192 Кбит/сек
Каналы : 2 канала
Частота : 48,0 КГц
Метод сжатия : С потерями
Размер потока : 76,2 Мбайт (10%)
Выравнивание : Соединение по промежуткам
Продолжительность промежутка : 40 мс. (1,00 видеокадр)
Время предзагрузки промежутка : 504 мс.

Аудио #2
Идентификатор : 2
Формат : AC-3
Формат/Информация : Audio Coding 3
Расширение режима : CM (complete main)
Идентификатор кодека : 2000
Продолжительность : 55 м.
Вид битрейта : Постоянный
Битрейт : 192 Кбит/сек
Каналы : 2 канала
Расположение каналов : Front: L R
Частота : 48,0 КГц
Битовая глубина : 16 бит
Метод сжатия : С потерями
Размер потока : 76,1 Мбайт (10%)
Выравнивание : Разделение по промежуткам
Продолжительность промежутка : 40 мс. (1,00 видеокадр)
Время предзагрузки промежутка : 500 мс.



Скачать Последний.враг.The.Last.Enemy.(Сезон.1.).(Айэйн.Б.МакДональд).[2008.триллер.драма.DVDRip].[VO].[Синица.Сергей.ака.ROLLINGHEAD].torrent без регистрации
Золото ЗОЛОТАЯ РАЗДАЧА! СКАЧАННОЕ НЕ ЗАСЧИТЫВАЕТСЯ! Золото
Дата: Зарегистрирован   [ Тип: внутренний ] Как тут cкачать?
MAGNET ссылка
MAGNET ссылка


Скачать .torrent

21 KB

Статус: проверено DHT
Скачан: торрент - 162 раз, раздача полностью - 120 раз
Размер: 3,84 GB
Оценка:  - (Голосов: 0)
Поблагодарили: 2
Поделиться ссылкой на эту раздачу с друзьями:
В контактеFacebookОдноклассникиTwitterLivejournalМой МирLiveinternet
 

 
Показать сообщения:    


Вы не можете начинать темы
Вы не можете отвечать на сообщения
Вы не можете редактировать свои сообщения
Вы не можете удалять свои сообщения
Вы не можете голосовать в опросах
Вы не можете прикреплять файлы к сообщениям
Вы можете скачивать файлы