Loading...
Error

Скачать Ходячие мертвецы / The Walking Dead (07x01-05 из 16) (Грег Никотеро и др.) [2016, ужасы, фантастика, триллер, драма, WEB-DL] [720p] [MVO (FOX)]+[Eng] торрент без регистрации

 
Статистика раздачи
Размер:  7,85 GB   |    Скачан:  329 раз
Сидов:  2  [  0 KB/s  ]   Личеров:  1  [  0 KB/s  ]  
 
Автор Сообщение

МихаНЕзатор

[] 

✦ Ходячие мертвецы / The Walking Dead ✦


Информация о фильме:
❖ Страна: США
❖ Производство: AMC Studios, American Movie Classics (AMC), Circle of Confusion, Darkwoods Productions, Valhalla Motion Pictures
❖ Год выпуска: 2016
❖ Жанр: ужасы, фантастика, триллер, драма
❖ Режиссер: Грег Никотеро, Эрнест Р. Дикерсон, Гай Ферленд

❖ В ролях: Эндрю Линкольн, Норман Ридус, Стивен Юн, Лорен Коэн, Чендлер Риггз, Данай Джекесай Гурира, Мелисса Сюзанн МакБрайд, Майкл Кадлитц, Ленни Джеймс, Сонеква Мартин, Джош МакДермитт, Кристиан Серратос, Аланна Мастерсон, Сет Гиллиам, Александра Брекенридж, Това Фелдшух

Описание фильма: После страшной болезни, превратившей жителей Земли в зомби, небольшая группа пока еще живых людей изо дня в день борется за выживание в новом, враждебном мире. Под предводительством бывшего полицейского Рика они ищут безопасное для жизни место, но зомби — это не самое страшное, что их ждет, основная опасность — это жестокое внутреннее соперничество среди выживших.



❖ Перевод: Профессиональный (многоголосый, закадровый) [Fox Crime] + Оригинал
❖ Субтитры: Английские
❖ Продолжительность: по ~00:44:00

Технические данные файла:
❖ Качество: WEB-DL 720p
❖ Формат: MKV
❖ Видео кодек: MPEG-4 AVC
❖ Аудио кодек: AC3
❖ Видео: 1280x718, 23.976 fps, MPEG-4 AVC ~ 4064 kbps (0.184 bit/pixel)
❖ Аудио №1: AC3, 2 ch, 192 kbps | RUS
❖ Аудио №2: AC3, 6 ch, 384 kbps| ENG

АНОНСЫ ПОПУЛЯРНЫХ РАЗДАЧ


Торрент обновлён, добавлена 5-я серия!
Эпизод 1. The Day Will Come When You Won't Be
General
Unique ID : 190603934420123926568277713513963881616 (0x8F64FB83ECEF39B1BC8EF07B5CC48490)
Complete name : The.Walking.Dead.S07E01.WEB-DL.720p.Fox.mkv
Format : Matroska
Format version : Version 4 / Version 2
File size : 1.53 GiB
Duration : 46mn 7s
Overall bit rate : 4 735 Kbps
Movie name : The Walking Dead s07e01 @ NNM-Club
Encoded date : UTC 2016-10-25 00:17:36
Writing application : mkvmerge v6.9.1 ('Blue Panther') 64bit built on Apr 18 2014 18:23:38
Writing library : libebml v1.3.0 + libmatroska v1.4.1

Video
ID : 1
Format : AVC
Format/Info : Advanced Video Codec
Format profile : High@L3.1
Format settings, CABAC : No
Format settings, ReFrames : 2 frames
Codec ID : V_MPEG4/ISO/AVC
Duration : 46mn 7s
Bit rate : 4 064 Kbps
Width : 1 280 pixels
Height : 718 pixels
Display aspect ratio : 16:9
Frame rate mode : Constant
Frame rate : 23.976 fps
Color space : YUV
Chroma subsampling : 4:2:0
Bit depth : 8 bits
Scan type : Progressive
Bits/(Pixel*Frame) : 0.184
Stream size : 1.31 GiB (86%)
Language : English
Default : Yes
Forced : No
Color range : Limited
Color primaries : BT.709
Transfer characteristics : BT.709
Matrix coefficients : BT.709

Audio #1
ID : 2
Format : AC-3
Format/Info : Audio Coding 3
Mode extension : CM (complete main)
Format settings, Endianness : Big
Codec ID : A_AC3
Duration : 46mn 7s
Bit rate mode : Constant
Bit rate : 192 Kbps
Channel(s) : 2 channels
Channel positions : Front: L R
Sampling rate : 48.0 KHz
Compression mode : Lossy
Delay relative to video : 29ms
Stream size : 63.3 MiB (4%)
Language : Russian
Default : Yes
Forced : No

Audio #2
ID : 3
Format : AC-3
Format/Info : Audio Coding 3
Mode extension : CM (complete main)
Format settings, Endianness : Big
Codec ID : A_AC3
Duration : 46mn 7s
Bit rate mode : Constant
Bit rate : 384 Kbps
Channel(s) : 6 channels
Channel positions : Front: L C R, Side: L R, LFE
Sampling rate : 48.0 KHz
Compression mode : Lossy
Delay relative to video : 29ms
Stream size : 127 MiB (8%)
Language : English
Default : No
Forced : No

Text
ID : 4
Format : UTF-8
Codec ID : S_TEXT/UTF8
Codec ID/Info : UTF-8 Plain Text
Language : English
Default : No
Forced : No
Когда раздача ведётся путём добавления новых серий, при каждом добавлении создётся новый торрент. Чтобы начать докачку новой серии, пользователям необходимо сделать следующее:
(1) остановить скачивание,
(2) удалить старый торрент у себя из клиента (старые серии удалять не надо),
(3) скачать новый торрент и запустить его у себя в клиенте вместо старого, при этом указать клиенту путь в старую папку, куда и должно происходить скачивание новых серий.
Ваш клиент при этом должен произвести хеширование (проверку) старой папки (если не производит сам - помогите ему сделать это), и будет докачивать только те серии, которых у вас ещё нет. Старые серии при этом не удаляются, а продолжают раздаваться!
Eсли вы уже удалили старые серии, то предотвратить повторную закачку старых серий можно, отжав галочку в соответсвующих местах при запуске нового торрента. По возможности, желательно не удалять старые серии как можно дольше, чтобы релизёр не столько продолжал раздавать старые серии, а смог сконцентрироваться на новых.



Скачать Ходячие.мертвецы.The.Walking.Dead.(07x01-05.из.16).(Грег.Никотеро.и.др.).[2016.ужасы.фантастика.триллер.драма.WEB-DL].[720p].[MVO.(FOX)]+[Eng].torrent без регистрации
Золото ЗОЛОТАЯ РАЗДАЧА! СКАЧАННОЕ НЕ ЗАСЧИТЫВАЕТСЯ! Золото
Дата: Зарегистрирован   [ Тип: внутренний ] Как тут cкачать?
MAGNET ссылка
MAGNET ссылка


Скачать .torrent

21 KB

Статус: проверено DHT
Скачан: торрент - 329 раз, раздача полностью - 9 раз
Размер: 7,85 GB
Оценка:  5 (Голосов: 4)
Поблагодарили: 7
Поделиться ссылкой на эту раздачу с друзьями:
В контактеFacebookОдноклассникиTwitterLivejournalМой МирLiveinternet
 

 
Показать сообщения:    


Вы не можете начинать темы
Вы не можете отвечать на сообщения
Вы не можете редактировать свои сообщения
Вы не можете удалять свои сообщения
Вы не можете голосовать в опросах
Вы не можете прикреплять файлы к сообщениям
Вы можете скачивать файлы