Loading...
Error

Скачать Люди в черном / Men in Black (Барри Зонненфельд / Barry Sonnenfeld) [1997, США, фантастика, боевик, комедия, BDRip-AVC] MVO торрент без регистрации

 
Статистика раздачи
Размер:  1,86 GB   |    Скачан:  144 раза
Сидов:  1  [  0 KB/s  ]  
 
Автор Сообщение

Shara

[] 

Люди в черном / Men in Black
Страна: США
Жанр: фантастика, боевик, комедия
Год выпуска: 1997
Продолжительность: 01:37:58
Перевод: Профессиональный (многоголосый закадровый) Чей? Неизвестно.
Cубтитры: нет
Режиссер: Барри Зонненфельд / Barry Sonnenfeld
В ролях: Томми Ли Джонс, Уилл Смит, Линда Фиорентино, Винсент Д`Онофрио, Рип Торн, Тони Шалхуб, Сиобэн Фэллон, Mike Nussbaum, Джон Гриз, Серджо Кальдерон, Карел Стрюкен, Фредерик Лен, Ричард Хэмилтон, Кент Фалкон, Джон Александр, Кейт Кэмпбелл, Кен Торли, Патрик Брин, Бекки Энн Бэйкер, Шон Уэйлен, Хэрш Нэйэр.
Описание: На Земле тайно проживают полторы тысячи инопланетян. Для решения вопросов их социальной защиты и предохранения землян от возможного негативного влияния создано бюро по сотрудничеству с инопланетянами. У землян-агентов есть продвинутая технология для взаимодействия с пришельцами и скрытия их присутствия. Специальное устройство для стирания памяти помогает оставить в тайне факт наличия инопланетян для большинства населения Земли.
Ветеран Бюро Агент Кей (Agent K) ищет себе нового напарника и нанимает на работу полицейского Джеймса Эдвардса. Новичку бюро стирают данные о личности, и он получает кодовое имя Джей (Agent J).
Между тем в среде пришельцев Нью-Йорка неспокойно и многие начинают покидать город. В разработку агентам попадает дело о незаконном пришельце, представителе расы «жуков» захватчиков. Пришелец вселяется в тело водителя Эдгара. «Жук» безжалостно убивая всех на своём пути охотится за «галактикой» — шариком висящим на шее кота по кличке Орион. Захват ценнейшего артефакта может повлечь за собой гибель Земли.
Жёлтая пресса наводит агентов на след преступника. В городской морг попадают два тела, одно из которых удаётся идентифицировать как высокопоставленного пришельца-аркилийца погибшего после встречи с жуком. Военный крейсер аркилийцев готов к ответному удару по Земле и в распоряжении агентства считанные часы. К и J находят захватчика, вступают в схватку с монстром, спасают планету и, тем самым, избегают опасности межгалактической войны.
Премии и награды:
1998 — Премия «Оскар»
Лучший грим (Рэк Бейкер, Дэвид Лерой Андерсон)
Номинации на премию «Оскар»
Лучшая работа художника-постановщика
Лучшая музыка
1998 — номинация на премию BAFTA:
Лучшие специальные эффекты
1998 — номинация на премию «Золотой Глобус»
Лучший музыкальный-фильм/комедия
1998 — номинация на премию Грэмми
лучшая инструментальная композиция к фильму
1998 — Премия MTV Movie Awards
лучшая драка (Уил Смит против пришельца-жука)
лучшая песня в фильме (Уил Смит «Men in Black»)
1998 — номинация на премию MTV Movie Awards
лучший фильм
лучшая комедийная роль
лучший экранный дуэт
1998 — Премия Satellite Award
лучший фильм
1998 — номинация на премию Satellite Award
номинации в четырёх категориях
1998 — премия ASCAP
лучшие кассовые сборы (top box office film)
1998 — премия Teen Choice Awards
номинация на лучший фильм
1998 — премия гильдии кинорежиссёров США
1998 — премия ассоциации кинокритиков Канзас-сити
лучшая актриса второго плана (Дженифер Конноли)
1998 — премия ассоциации звукорежиссёров США «Золотая бобина» (Golden Reel)
лучшая звукорежиссура диалоги.
Доп. информация:
Перевод отличается особым сарказмом. Так как все еще не ясно, что это за перевод, ниже даю несколько фраз, по которым, может быть, кто-нибудь поможет определить, кто автор/студия/издатель перевода.
"Похоже ты слез с автобуса не в той части города, амиго! Я готов поставить доллар против песо, что ты вообще не местный" (Кей)
"Да, когда он сюда доберется, я и его задницу арестую" (Джей)
"Я ухожу, надрываю свою задницу, зарабатываю деньги и все, что я хочу, это возвращаться в чистый уютный дом, где на столе меня ждет вкусный жирный бифштекс, а вместо него я получаю вот это! С виду, так настоящий яд. Нет, не убирай, я это ем, черт подери! Там ведь яд, правда? Клянусь богом, я не удивлюсь если так и есть. Не даром ты трешься тут по углам, как собака, которую слишком много били или били недостаточно. Я никак не могу решить. Ты не на что не годишься, Биатрис! Единственная вещь, которая приносит здесь пользу - это мой треклятый грузовик" (Эдгар)
"Я никогда не видела, чтобы сахар делал такие вещи" (Биатрис)
"Слушай, приятель, а когда я получу свою собственную маленькую мозговую сверкалку-мешалку?" (Джей)
"Ах, вы, бесхребетные слизняки!" (Зэд)
"Воспользуемся пульсаром пятого уровня, субсонарным фактором внутреннего взрыва". (Кей)
Качество видео: BDRip-AVC
Формат видео: MKV
Видео: AVC, 880х576 pixels, 3:2, 23.976 fps, 2 455 Kbps
Аудио: AC-3, 48.0 KHz, 256 Kbps, 2 channels
General
Complete name : D:\FILM\Men_in_black_I_BDRip-AVC (1).mkv
Format : Matroska
File size : 1.86 GiB
Duration : 1h 37mn
Overall bit rate : 2 712 Kbps
Movie name : [tRuAVC]-=AKALLIKA=-
Encoded date : UTC 2011-06-13 10:29:19
Writing application : mkvmerge v4.8.0 ('I Got The...') сборка от May 24 2011 03:12:58
Writing library : libebml v1.2.0 + libmatroska v1.1.0
Video
ID : 1
Format : AVC
Format/Info : Advanced Video Codec
Format profile : Main@L3.1
Format settings, CABAC : Yes
Format settings, ReFrames : 5 frames
Muxing mode : Container profile=Unknown@3.1
Codec ID : V_MPEG4/ISO/AVC
Duration : 1h 37mn
Bit rate : 2 402 Kbps
Nominal bit rate : 2 455 Kbps
Width : 880 pixels
Height : 576 pixels
Display aspect ratio : 1.851
Original display aspect ratio : 1.528
Frame rate : 23.976 fps
Resolution : 8 bits
Colorimetry : 4:2:0
Scan type : Progressive
Bits/(Pixel*Frame) : 0.198
Stream size : 1.64 GiB (88%)
Writing library : x264 core 65 r1029M cb3c213
Encoding settings : cabac=1 / ref=5 / deblock=1:-1:-1 / analyse=0x1:0x111 / me=umh / subme=9 / psy_rd=1.0:0.0 / mixed_ref=0 / me_range=32 / chroma_me=1 / trellis=0 / 8x8dct=0 / cqm=0 / deadzone=21,11 / chroma_qp_offset=-2 / threads=3 / nr=0 / decimate=1 / mbaff=0 / bframes=8 / b_pyramid=1 / b_adapt=2 / b_bias=0 / direct=3 / wpredb=1 / keyint=250 / keyint_min=25 / scenecut=40(pre) / rc=2pass / bitrate=2455 / ratetol=1.0 / qcomp=0.60 / qpmin=10 / qpmax=51 / qpstep=4 / cplxblur=20.0 / qblur=0.5 / ip_ratio=1.40 / pb_ratio=1.30 / aq=1:1.00
Audio
ID : 2
Format : AC-3
Format/Info : Audio Coding 3
Codec ID : A_AC3
Duration : 1h 37mn
Bit rate mode : Constant
Bit rate : 256 Kbps
Channel(s) : 2 channels
Channel positions : L R
Sampling rate : 48.0 KHz
Stream size : 179 MiB (9%)



Скачать Люди.в.черном.Men.in.Black.(Барри.Зонненфельд.Barry.Sonnenfeld).[1997.США.фантастика.боевик.комедия.BDRip-AVC].MVO.torrent без регистрации
Золото ЗОЛОТАЯ РАЗДАЧА! СКАЧАННОЕ НЕ ЗАСЧИТЫВАЕТСЯ! Золото
Дата: Зарегистрирован   [ Тип: внутренний ] Как тут cкачать?
MAGNET ссылка
MAGNET ссылка


Скачать .torrent

19 KB

Статус: проверено DHT
Скачан: торрент - 144 раз, раздача полностью - 30 раз
Размер: 1,86 GB
Оценка:  - (Голосов: 0)
Поблагодарили: 1
Поделиться ссылкой на эту раздачу с друзьями:
В контактеFacebookОдноклассникиTwitterLivejournalМой МирLiveinternet
 

 
Показать сообщения:    


Вы не можете начинать темы
Вы не можете отвечать на сообщения
Вы не можете редактировать свои сообщения
Вы не можете удалять свои сообщения
Вы не можете голосовать в опросах
Вы не можете прикреплять файлы к сообщениям
Вы можете скачивать файлы