Loading...
Error

Скачать Пиноккио 964 / 964 Pinocchio (Шодзин Фукуи) [1991, Киберпанк, Фантастика, Ужасы, DVDRip] [AVO] торрент без регистрации

 
Статистика раздачи
Размер:  696 MB   |    Скачан:  132 раза
Сидов:  1  [  0 KB/s  ]  
 
Автор Сообщение

Marsianka

[] 



Информация о фильме
Название: Пиноккио 964
Оригинальное название: _964 Pinocchio
Год выхода: 1991
Жанр: Киберпанк, Фантастика, Ужасы
Режиссер: Шодзин Фукуи / Shozin Fukui
В ролях: Хаге Судзуки, Онн Чан, Кйоко Хара, Коцзи Лита, Раньяку Микутеи и другие

О фильме:
Пиноккио 964, сексуальный раб, выброшен на улицу его владельцами из-за неспособности поддерживать эрекцию. Там он знакомится с бездомной девушкой-шизофреничкой со стертой памятью, с которой у него образовывается очень странный союз.
В это же время компания, которая произвела Пиноккио, узнает о том, что он попал на улицу. Босс компании посылает трех служащих, что бы уничтожить его из-за неисправной работы, как бракованную вещь....

Культовый и в самой Японии, Пиноккио 964 - фильм, один из первых был создан на стыке границ киберпанк, фантастики и ужасов. Фильм колеблется между статическим спокойствием и взрывным насилием. Многие сцены просто омерзительны, как например, поедание Химико собственной рвоты, однако даже спустя почти 20 лет с момента создания этого фильма, даже пресыщенный спецэффектами любитель фильмов такого жанра испытает весьма смешанные чувства от просмотра фильма, который обещает быть незабываемым и для изысканных ценителей арт-хауса.
Отдельного внимания заслуживает бесподобный саундтрек фильма. (c)
Внимание: Лицам до 18-ти просмотр не рекомендуется!
Награды:
Japanese Professional Movie Awards (1992) - Специальный приз
Специально для тех, кому понравилась раздача Приключения мальчика с электрическим столбом / Adventures of the Electric Rod Boy / Denchu Kozo no Boken (1987) VHSrip
General
Complete name : Pinocchio.1991.DVDRip.avi
Format : AVI
Format/Info : Audio Video Interleave
File size : 696 MiB
Duration : 1h 37mn
Overall bit rate : 1 002 Kbps
Writing application : VirtualDubMod 1.5.10.2 (build 2540/release)
Writing library : VirtualDubMod build 2540/release

Video
ID : 0
Format : MPEG-4 Visual
Format profile : Advanced Simple@L5
Format settings, BVOP : Yes
Format settings, QPel : No
Format settings, GMC : No warppoints
Format settings, Matrix : Default (H.263)
Codec ID : XVID
Codec ID/Hint : XviD
Duration : 1h 37mn
Bit rate : 798 Kbps
Width : 640 pixels
Height : 464 pixels
Display aspect ratio : 1.379
Frame rate : 29.970 fps
Color space : YUV
Chroma subsampling : 4:2:0
Bit depth : 8 bits
Scan type : Progressive
Bits/(Pixel*Frame) : 0.090
Stream size : 554 MiB (80%)
Writing library : XviD 1.1.0 (UTC 2005-11-22)

Audio
ID : 1
Format : AC-3
Format/Info : Audio Coding 3
Mode extension : CM (complete main)
Codec ID : 2000
Duration : 1h 37mn
Bit rate mode : Constant
Bit rate : 192 Kbps
Channel(s) : 2 channels
Channel positions : Front: L R
Sampling rate : 48.0 KHz
Bit depth : 16 bits
Video delay : 31ms
Stream size : 133 MiB (19%)
Alignment : Split accross interleaves
Interleave, duration : 33 ms (1.00 video frame)
Interleave, preload duration : 500 ms

Страна: Япония
Продолжительность: 1h 37mn
Перевод: Авторский (одноголосый, закадровый)

Файл
Кодек: XviD MPEG-4 codec
Качество: DVDRip
Видео: Resolution : 640x464 FPS : 29,97 BitRate : 810 Kbps Quality Factor : 0,09 b/px
Звук: Codec : ATSC/A-52 Dolby AC3 Number of channels : 2 Sample Rate : 48000 Hz BitRate : 192 Kbps



Скачать Пиноккио.964.964.Pinocchio.(Шодзин.Фукуи).[1991.Киберпанк.Фантастика.Ужасы.DVDRip].[AVO].torrent без регистрации
Золото ЗОЛОТАЯ РАЗДАЧА! СКАЧАННОЕ НЕ ЗАСЧИТЫВАЕТСЯ! Золото
Дата: Зарегистрирован   [ Тип: внутренний ] Как тут cкачать?
MAGNET ссылка
MAGNET ссылка


Скачать .torrent

14 KB

Статус: проверено DHT
Скачан: торрент - 132 раз, раздача полностью - 5 раз
Размер: 696 MB
Оценка:  - (Голосов: 0)
Поблагодарили: 2
Поделиться ссылкой на эту раздачу с друзьями:
В контактеFacebookОдноклассникиTwitterLivejournalМой МирLiveinternet
 

 
Показать сообщения:    


Вы не можете начинать темы
Вы не можете отвечать на сообщения
Вы не можете редактировать свои сообщения
Вы не можете удалять свои сообщения
Вы не можете голосовать в опросах
Вы не можете прикреплять файлы к сообщениям
Вы можете скачивать файлы