Loading...
Error

Скачать Мерцающий / The Glimmer Man (Джон Грэй) [1996, Триллер, боевик, DVDRip] [Dub] торрент без регистрации

 
Статистика раздачи
Размер:  1,43 GB   |    Скачан:  147 раз

Полного источника не было: 30 минут

 
Автор Сообщение

Marsianka

[] 



Информация о фильме
Название: Мерцающий
Оригинальное название: The Glimmer Man
Год выхода: 1996
Жанр: Триллер, боевик
Режиссер: Джон Грэй
В ролях: Стивен Сигал, Кинен Айвори Уайнс, Боб Гантон, Брайан Кокс, Джон М. Джексон

О фильме:
Перед полицейским управлением Лос-Анджелеса поставлена задача: найти и обезвредить преступника, на счету которого немало жертв. Непосредственно по следу убийцы идут два сыщика: Джек Коул и Джим Кэмпбелл. В таком ответственном и рискованном деле, как охота на убийцу, от партнера зависит многое, а иногда все. Однако именно эти двое полицейских решительно неспособны понять друг друга. Суровый и немногословный Коул, воспитанный на восточной философии и боевых искусствах, не может не удивляться своему напарнику, балагуру и шутнику. А Кэмпбелла, как человека здравомыслящего и житейски опытного, раздражает постоянная склонность партнера к мордобою и прочим резким действиям. Порой ему вообще начинает казаться, что преступник, которого они ищут, не кто иной, как его напарник Коул.



Страна: США
Продолжительность: 01:27:37
Перевод: Профессиональный (полное дублирование)

Файл
Кодек: XviD
Качество: DVDRip
Видео: 720x416, 24 fps, ~1934 кб/с
Звук: 48 kHz, AC3 Dolby Digital, 3/2 (L,C,R,l,r) + LFE ch, ~384 кб/с Релиз от:



Скачать Мерцающий.The.Glimmer.Man.(Джон.Грэй).[1996.Триллер.боевик.DVDRip].[Dub].torrent без регистрации
Золото ЗОЛОТАЯ РАЗДАЧА! СКАЧАННОЕ НЕ ЗАСЧИТЫВАЕТСЯ! Золото
Дата: Зарегистрирован   [ Тип: внутренний ] Как тут cкачать?
MAGNET ссылка
MAGNET ссылка


Скачать .torrent

15 KB

Статус: проверено DHT
Скачан: торрент - 147 раз, раздача полностью - 23 раз
Размер: 1,43 GB
Оценка:  - (Голосов: 0)
Поблагодарили: 2
Поделиться ссылкой на эту раздачу с друзьями:
В контактеFacebookОдноклассникиTwitterLivejournalМой МирLiveinternet
 

 

proljot2615

[] 

Marsianka
Доброго времени.
Меня очъ позабавило:
Релиз от: Lebanon!?
Формат : AVI
Формат/Информация : Audio Video Interleave
Размер файла : 1,43 Гбайт
Продолжительность : 1 ч. 27 м.
Общий поток : 2329 Кбит/сек
Название фильма : Мерцающий.Title1.DVDRip
Программа кодирования : Lavf52.17.0
Формат оригинала/Имя : THE_GLIMMER_MAN

Видео
Идентификатор : 0
Формат : MPEG-4 Visual
Профиль формата : Simple@L3
Параметр BVOP формата : Нет
Параметр QPel формата : Нет
Параметр GMC формата : Без точки перехода
Параметр матрицы формата : Default (H.263)
Идентификатор кодека : XVID
Идентификатор кодека/Подсказка : XviD
Продолжительность : 1 ч. 27 м.
Битрейт : 1935 Кбит/сек
Ширина : 720 пикс.
Высота : 416 пикс.
Соотношение сторон : 16:9
Частота кадров : 24,000 кадр/сек
Цветовое пространство : YUV
Подвыборка цветности : 4:2:0
Битовая глубина : 8 бит
Тип развёртки : Прогрессивная
Метод сжатия : С потерями
Бит/(Пиксели*Кадры) : 0.269
Размер потока : 1,18 Гбайт (83%)
Библиотека кодирования : XviD 1.1.2 (UTC 2006-11-01)

Аудио
Идентификатор : 1
Формат : AC-3
Формат/Информация : Audio Coding 3
Расширение режима : CM (complete main)
Идентификатор кодека : 2000
Продолжительность : 1 ч. 27 м.
Вид битрейта : Постоянный
Битрейт : 384 Кбит/сек
Каналы : 6 каналов
Расположение каналов : Front: L C R, Side: L R, LFE
Частота : 48,0 КГц
Битовая глубина : 16 бит
Метод сжатия : С потерями
Размер потока : 241 Мбайт (16%)
Выравнивание : Соединение по промежуткам
Продолжительность промежутка : 32 мс. (0,77 видеокадр)
Время предзагрузки промежутка : 32 ms
 
Показать сообщения:    


Вы не можете начинать темы
Вы не можете отвечать на сообщения
Вы не можете редактировать свои сообщения
Вы не можете удалять свои сообщения
Вы не можете голосовать в опросах
Вы не можете прикреплять файлы к сообщениям
Вы можете скачивать файлы