Loading...
Error

Скачать Пришельцы / Les visiteurs (Жан-Мари Пуаре) [1993, фантастика, комедия, BDRip] 2x[MVO]+[DVO] торрент без регистрации

 
Статистика раздачи
Размер:  2,19 GB   |    Скачан:  154 раза
Сидов:  1  [  0 KB/s  ]  
 
Автор Сообщение

МихаНЕзатор

[] 

Жанр: фантастика, комедия
Страна: Франция
Режиссер: Жан-Мари Пуаре

В ролях: Кристиан Клавье, Жан Рено, Жан-Поль Мюэль, Жерар Сети, Ариэль Семенофф, Валери Лемерсье, Мари-Анн Шазель, Кристиан Бюжо, Изабель Нанти, Дидье Пэн

Сюжет фильма: Франция 1122 год. Граф Годфруа де Монмирай став жертвой проклятия злой колдуньи, убивает отца своей невесты. Годфруа обращается за помощью к великому волшебнику Эвсебиусу, который предлагает графу отправитться по коридорам времени в прошлое и исправить свою ошибку. Де Монмирай соглашается на это предложение, но из-за ошибки волшебника он и его слуга попадают в 90-е годы нашего времени. В ХХ веке их ждет много приключений и встреча со своими потомками

Мировая премьера: 27 января 1993



Продолжительность: 01:46:44
Качество видео: BDRip [Blu-Ray / 1080p]
Видео: кодек: XviD, размер кадра: 720x304, битрейт: 1750 кб/с, bit/pixel: 0.333
Аудио #1: язык: Русский , перевод: многоголосый закадровый (профессиональный) [ДВД групп], кодек: AC3 5.1, битрейт: 384 кб/с
Аудио #2: язык: Русский , перевод: многоголосый закадровый (профессиональный) [НТВ], кодек: AC3 2.0, битрейт: 192 кб/с
Аудио #3: язык: Русский , перевод: дублированный (дубляж), кодек: AC3 2.0, битрейт: 192 кб/с
Аудио #4: язык: Французский , перевод: оригинал, кодек: AC3 5.1, битрейт: 384 кб/с
Субтитры #1: тип: внешние, формат: SRT, язык: Русский
Субтитры #2: тип: внешние, формат: SRT, язык: Английский

Релиз группы: Автор рипа:
Общее
Формат : AVI
Формат/Информация : Audio Video Interleave
Профиль формата : OpenDML
Размер файла : 2,19 Гбайт
Продолжительность : 1 ч. 46 м.
Общий поток : 2931 Кбит/сек
Название фильма : Пришельцы / Les visiteurs (1993) BDRip
Режиссёр : tise [Blu-Ray / 1080p]
Программа кодирования : VirtualDubModRus 1.5.10.2 (build 2542/release)
Библиотека кодирования : VirtualDubMod build 2542/release

Видео
Идентификатор : 0
Формат : MPEG-4 Visual
Профиль формата : Advanced Simple@L5
Параметр BVOP формата : 2
Параметр QPel формата : Нет
Параметр GMC формата : Без точки перехода
Параметр матрицы формата : Default (MPEG)
Идентификатор кодека : XVID
Идентификатор кодека/Подсказка : XviD
Продолжительность : 1 ч. 46 м.
Битрейт : 1750 Кбит/сек
Ширина : 720 пикселей
Высота : 304 пикселя
Соотношение сторон : 2,35:1
Частота кадров : 24,000 кадра/сек
Цветовое пространство : YUV
Субдискретизация насыщенности : 4:2:0
Битовая глубина : 8 бит
Тип развёртки : Прогрессивная
Метод сжатия : С потерями
Бит/(Пиксели*Кадры) : 0.333
Размер потока : 1,30 Гбайт (60%)
Библиотека кодирования : XviD 1.2.1 (UTC 2008-12-04)

Аудио #1
Идентификатор : 1
Формат : AC-3
Формат/Информация : Audio Coding 3
Расширение режима : CM (complete main)
Идентификатор кодека : 2000
Продолжительность : 1 ч. 46 м.
Вид битрейта : Постоянный
Битрейт : 384 Кбит/сек
Каналы : 6 каналов
Расположение каналов : Front: L C R, Side: L R, LFE
Частота : 48,0 КГц
Битовая глубина : 16 бит
Метод сжатия : С потерями
Размер потока : 293 Мбайт (13%)
Выравнивание : Разделение по промежуткам
Продолжительность промежутка : 42 мс. (1,00 видеокадр)
Время предзагрузки промежутка : 500 мс.

Аудио #2
Идентификатор : 2
Формат : AC-3
Формат/Информация : Audio Coding 3
Расширение режима : CM (complete main)
Идентификатор кодека : 2000
Продолжительность : 1 ч. 46 м.
Вид битрейта : Постоянный
Битрейт : 192 Кбит/сек
Каналы : 2 канала
Расположение каналов : Front: L R
Частота : 48,0 КГц
Битовая глубина : 16 бит
Метод сжатия : С потерями
Размер потока : 147 Мбайт (7%)
Выравнивание : Разделение по промежуткам
Продолжительность промежутка : 42 мс. (1,00 видеокадр)
Время предзагрузки промежутка : 500 мс.

Аудио #3
Идентификатор : 3
Формат : AC-3
Формат/Информация : Audio Coding 3
Профиль формата : Dolby Digital
Расширение режима : CM (complete main)
Идентификатор кодека : 2000
Продолжительность : 1 ч. 46 м.
Вид битрейта : Постоянный
Битрейт : 192 Кбит/сек
Каналы : 2 канала
Расположение каналов : Front: L R
Частота : 48,0 КГц
Битовая глубина : 16 бит
Метод сжатия : С потерями
Размер потока : 147 Мбайт (7%)
Выравнивание : Разделение по промежуткам
Продолжительность промежутка : 42 мс. (1,00 видеокадр)
Время предзагрузки промежутка : 500 мс.

Аудио #4
Идентификатор : 4
Формат : AC-3
Формат/Информация : Audio Coding 3
Расширение режима : CM (complete main)
Идентификатор кодека : 2000
Продолжительность : 1 ч. 46 м.
Вид битрейта : Постоянный
Битрейт : 384 Кбит/сек
Каналы : 6 каналов
Расположение каналов : Front: L C R, Side: L R, LFE
Частота : 48,0 КГц
Битовая глубина : 16 бит
Метод сжатия : С потерями
Размер потока : 293 Мбайт (13%)
Выравнивание : Разделение по промежуткам
Продолжительность промежутка : 42 мс. (1,00 видеокадр)
Время предзагрузки промежутка : 500 мс.



Скачать Пришельцы.Les.visiteurs.(Жан-Мари.Пуаре).[1993.фантастика.комедия.BDRip].2x[MVO]+[DVO].torrent без регистрации
Золото ЗОЛОТАЯ РАЗДАЧА! СКАЧАННОЕ НЕ ЗАСЧИТЫВАЕТСЯ! Золото
Дата: Зарегистрирован   [ Тип: внутренний ] Как тут cкачать?
MAGNET ссылка
MAGNET ссылка


Скачать .torrent

12 KB

Статус: проверено DHT
Скачан: торрент - 154 раз, раздача полностью - 37 раз
Размер: 2,19 GB
Оценка:  - (Голосов: 0)
Поблагодарили: 2
Поделиться ссылкой на эту раздачу с друзьями:
В контактеFacebookОдноклассникиTwitterLivejournalМой МирLiveinternet
 

 
Показать сообщения:    


Вы не можете начинать темы
Вы не можете отвечать на сообщения
Вы не можете редактировать свои сообщения
Вы не можете удалять свои сообщения
Вы не можете голосовать в опросах
Вы не можете прикреплять файлы к сообщениям
Вы можете скачивать файлы