Loading...
Error

Скачать Башня ужаса / Tower of Terror (Д. Дж. Макхэйл) [1997, ужасы, триллер, комедия, семейный, DVDRip] [MVO] (Инис) + [DVO] (НТВ+) торрент без регистрации

 
Статистика раздачи
Размер:  826 MB   |    Скачан:  139 раз

Полного источника не было: 1 месяц 2 дня

 
Автор Сообщение

leon030982

[] 

Башня ужаса / Tower of Terror
Страна: США
Жанр: ужасы, триллер, комедия, семейный
Год выпуска: 1997
Продолжительность: 01:29:06
Перевод 1: Профессиональный (многоголосый закадровый) Инис
Перевод 2: Профессиональный (двухголосый закадровый) НТВ+ (Елена Борзунова и Александр Коврижников)
Cубтитры: нет
Режиссер: Д. Дж. Макхэйл
В ролях: Стив Гуттенберг, Кирстен Данст, Ниа Пиплз, Майкл МакШейн, Эмзи Стриклэнд, Мелора Хардин, Нил Дункан, Линдсэй Риджвей, Джон Фрэнклин, Венди Вортингтон
Описание: Голливуд, 1939 год. Пятеро людей заходят в лифт шикарного отеля. Среди них — маленькая звездочка, девочка-актриса, любимица зрителей. Кабина поднимается до 11 этажа и стремительно падает вниз. Пять душ вылетают из шахты, пять привидений остаются в отеле, чтобы терроризировать постояльцев в течение многих лет. Прослышав об отеле, населенном привидениями, журналист Баззи Крокер хватается за эту историю, как за возможность реабилитировать себя в глазах читателей. Когда-то Баззи был серьезным и авторитетным обозревателем, но настали тяжелые времена, и ему пришлось зарабатывать на хлеб в скользком таблоиде, противном сердцу. Баззи отправляется в отель с привидениями вместе со своей племянницей, чтобы провести там независимое журналистское расследование. Старая леди из отеля утверждает, что знает главный секрет привидений. Прогнать их прочь можно только одним способом: отыскать по одной вещи (всего пять), принадлежавшей каждому погибшему в лифте.

Качество видео: DVDRip
Формат видео: AVI
Видео: 624x464 (1.34:1), 23.976 fps, XviD build 64 ~1030 kbps avg, 0.15 bit/pixel
Аудио 1: 48 kHz, MPEG Layer 3, 2 ch, ~128.00 kbps avg
Аудио 2: 48 kHz, MPEG Layer 3, 2 ch, ~128.00 kbps avg НТВ+ Отдельно
General
Complete name : D:\Релизы\Башня ужаса\(1997) Башня ужаса (Tower of Terror) MVO.DVDRip.XviD.avi
Format : AVI
Format/Info : Audio Video Interleave
File size : 744 MiB
Duration : 1h 29mn
Overall bit rate : 1 168 Kbps
Writing application : VirtualDubMod 1.5.10.3 | www.virtualdub-fr.org || (build 2550/release)
Writing library : VirtualDubMod build 2550/release
Video
ID : 0
Format : MPEG-4 Visual
Format profile : Advanced Simple@L5
Format settings, BVOP : 1
Format settings, QPel : No
Format settings, GMC : No warppoints
Format settings, Matrix : Custom
Codec ID : XVID
Codec ID/Hint : XviD
Duration : 1h 29mn
Bit rate : 1 031 Kbps
Width : 624 pixels
Height : 464 pixels
Display aspect ratio : 4:3
Frame rate : 23.976 fps
Color space : YUV
Chroma subsampling : 4:2:0
Bit depth : 8 bits
Scan type : Progressive
Compression mode : Lossy
Bits/(Pixel*Frame) : 0.148
Stream size : 657 MiB (88%)
Writing library : XviD 64
Audio
ID : 1
Format : MPEG Audio
Format version : Version 1
Format profile : Layer 3
Mode : Joint stereo
Codec ID : 55
Codec ID/Hint : MP3
Duration : 1h 29mn
Bit rate mode : Constant
Bit rate : 128 Kbps
Channel(s) : 2 channels
Sampling rate : 48.0 KHz
Compression mode : Lossy
Stream size : 81.6 MiB (11%)
Alignment : Aligned on interleaves
Interleave, duration : 42 ms (1.00 video frame)
Interleave, preload duration : 504 ms
Writing library : LAME3.99r
Encoding settings : -m j -V 4 -q 2 -lowpass 17 -b 128



Скачать Башня.ужаса.Tower.of.Terror.(Д.Дж.Макхэйл).[1997.ужасы.триллер.комедия.семейный.DVDRip].[MVO].(Инис).+.[DVO].(НТВ+).torrent без регистрации
Золото ЗОЛОТАЯ РАЗДАЧА! СКАЧАННОЕ НЕ ЗАСЧИТЫВАЕТСЯ! Золото
Дата: Зарегистрирован   [ Тип: внутренний ] Как тут cкачать?
MAGNET ссылка
MAGNET ссылка


Скачать .torrent

17 KB

Статус: проверено
Скачан: торрент - 139 раз, раздача полностью - 13 раз
Размер: 826 MB
Оценка:  - (Голосов: 0)
Поблагодарили: 2
Поделиться ссылкой на эту раздачу с друзьями:
В контактеFacebookОдноклассникиTwitterLivejournalМой МирLiveinternet
 

 
Показать сообщения:    


Вы не можете начинать темы
Вы не можете отвечать на сообщения
Вы не можете редактировать свои сообщения
Вы не можете удалять свои сообщения
Вы не можете голосовать в опросах
Вы не можете прикреплять файлы к сообщениям
Вы можете скачивать файлы