Loading...
Error

Скачать Больше чем жизнь / Larger Than Life (Ховард Франклин) [1996, Комедия, DVDRip] [MVO] + [AVO] торрент без регистрации

 
Статистика раздачи
Размер:  1,7 GB   |    Скачан:  151 раз
Сидов:  1  [  0 KB/s  ]  
 
Автор Сообщение

leon030982

[] 



Название: Больше чем жизнь
Оригинальное название: Larger Than Life
Год выхода: 1996
Страна: США
Жанр: Комедия
Продолжительность: 01:33:12
Перевод: Профессиональный (многоголосый, закадровый), Авторский (одноголосый) Василий Горчаков, оригинальный английский

Режиссер: Ховард Франклин

В ролях: Билл Мюррэй, Джерри Адлер, Ричард Алан Бэйкер, Ричи Аллан, Кимберли Торнтон, Анита Джиллетт, Морин Мюллер, Джереми Пивен, Мэттью МакКонахи

О фильме:
Обаятельный интеллектуал Джек получает в наследство огромную слониху Веру. Как избавиться от такого внезапно свалившегося счастья? Джек решает отправить ее в Шри-Ланку, но перевозка слона весом 4 тонны это проблема такого же размера, как и само животное.

А чтобы заставить ее слушаться, Джек должен научиться виртуозно свистеть. Постепенно привязываясь друг к другу, наши герои становятся настоящими друзьями. Джек понимает, что Вера умна и талантлива, и меняет свое первоначальное решение вместо Шри-Ланки они едут в Голливуд!



Качество: DVDRip
Кодек: XviD build 47
Видео: 720x544 (1.32:1), 23.976 fps, ~2013 kbps avg, 0.21 bit/pixel
Звук:
Audio #1: 48 kHz, AC3 Dolby Digital, 2/0 (L,R) ch, ~192.00 kbps avg
Audio #2: 48 kHz, AC3 Dolby Digital, 2/0 (L,R) ch, ~192.00 kbps avg
Audio #3:48 kHz, AC3 Dolby Digital, 2/0 (L,R) ch, ~192.00 kbps avg
Великолепный и захватывающий фильм, каких в наше время не очень много! Абсолютно превосходный комедийный сюжет с печальной концовкой решил всю судьбу этого фильма. Бесхитростные приколы и шутки делают фильм ещё более впечатлительней. Я наверняка бы чуть-чуть изменил название жанра фильма «Больше, чем жизнь» скорее это не комедия, а комедийная мелодрама. То есть подобран комедийный сюжет и присутствующие при нём мелодраматические блики: сцены помощи, встречи и прощания и так далее.

Вообще весь смысл фильма состоит в любви, то есть «Возлюби ближнего своего, а то придёт дальний. ..». В данной ситуации ближним главного героя Джека стала слониха Вера, а дальним лихач-водитель Крис Такер. Герои преодолевают уйму удач и поражений на протяжении всего фильма, но в конце их ждёт чуть-чуть печальная концовка. Главное, на мой взгляд, чем более бесподобен этот фильм дружбой. Герои справляются со всеми преградами именно с помощью неё.

Конечно нельзя не сказать о бесподобной игре актёров. Ну конечно же превосходно сыграл свою роль Билл Мюррей. Кстати, у Билла не один такой специфически простой для просмотра и понимания фильм. Так же можно отметить в его творчестве такой фильм как «День Сурка». Да и чего тут ещё говорить мне очень нравится этот актёр!

Ещё мне очень понравилась озвучка фильма. Вся музыка идёт по порядку и к месту, что подчёркивает грациозность фильма. Все саундтреки безусловно прекрасны.

Если бы такая проблема случилась с одним из нас, то наверняка мы бы не поступили так, как это сделал Джек Коркоррен!

+CruS@DeR+
General
Complete name : Larger_Than_Life_(1996).avi
Format : AVI
Format/Info : Audio Video Interleave
File size : 1.70 GiB
Duration : 1h 33mn
Overall bit rate : 2 609 Kbps
Movie name : Larger Than Life (1996)
Director : _int_
Writing application : VirtualDubMod 1.5.10.2 (build 2540/release)
Writing library : VirtualDubMod build 2540/release

Video
ID : 0
Format : MPEG-4 Visual
Format profile : Advanced Simple@L5
Format settings, BVOP : Yes
Format settings, QPel : No
Format settings, GMC : No warppoints
Format settings, Matrix : Custom
Codec ID : XVID
Codec ID/Hint : XviD
Duration : 1h 33mn
Bit rate : 2 014 Kbps
Width : 720 pixels
Height : 544 pixels
Display aspect ratio : 4:3
Frame rate : 23.976 fps
Color space : YUV
Chroma subsampling : 4:2:0
Bit depth : 8 bits
Scan type : Progressive
Bits/(Pixel*Frame) : 0.215
Stream size : 1.31 GiB (77%)
Writing library : XviD 1.2.0.dev47 (UTC 2006-11-01)

Audio #1
ID : 1
Format : AC-3
Format/Info : Audio Coding 3
Mode extension : CM (complete main)
Codec ID : 2000
Duration : 1h 33mn
Bit rate mode : Constant
Bit rate : 192 Kbps
Channel(s) : 2 channels
Channel positions : Front: L R
Sampling rate : 48.0 KHz
Bit depth : 16 bits
Stream size : 128 MiB (7%)
Alignment : Split accross interleaves
Interleave, duration : 42 ms (1.00 video frame)
Interleave, preload duration : 500 ms

Audio #2
ID : 2
Format : AC-3
Format/Info : Audio Coding 3
Format profile : Dolby Digital
Mode extension : CM (complete main)
Codec ID : 2000
Duration : 1h 33mn
Bit rate mode : Constant
Bit rate : 192 Kbps
Channel(s) : 2 channels
Channel positions : Front: L R
Sampling rate : 48.0 KHz
Bit depth : 16 bits
Stream size : 128 MiB (7%)
Alignment : Split accross interleaves
Interleave, duration : 42 ms (1.00 video frame)
Interleave, preload duration : 500 ms

Audio #3
ID : 3
Format : AC-3
Format/Info : Audio Coding 3
Mode extension : CM (complete main)
Codec ID : 2000
Duration : 1h 33mn
Bit rate mode : Constant
Bit rate : 192 Kbps
Channel(s) : 2 channels
Channel positions : Front: L R
Sampling rate : 48.0 KHz
Bit depth : 16 bits
Stream size : 128 MiB (7%)
Alignment : Split accross interleaves
Interleave, duration : 42 ms (1.00 video frame)
Interleave, preload duration : 500 ms



Скачать Больше.чем.жизнь.Larger.Than.Life.(Ховард.Франклин).[1996.Комедия.DVDRip].[MVO].+.[AVO].torrent без регистрации
Золото ЗОЛОТАЯ РАЗДАЧА! СКАЧАННОЕ НЕ ЗАСЧИТЫВАЕТСЯ! Золото
Дата: Зарегистрирован   [ Тип: внутренний ] Как тут cкачать?
MAGNET ссылка
MAGNET ссылка


Скачать .torrent

18 KB

Статус: проверено DHT
Скачан: торрент - 151 раз, раздача полностью - 24 раз
Размер: 1,7 GB
Оценка:  - (Голосов: 0)
Поблагодарили: 2
Поделиться ссылкой на эту раздачу с друзьями:
В контактеFacebookОдноклассникиTwitterLivejournalМой МирLiveinternet
 

 
Показать сообщения:    


Вы не можете начинать темы
Вы не можете отвечать на сообщения
Вы не можете редактировать свои сообщения
Вы не можете удалять свои сообщения
Вы не можете голосовать в опросах
Вы не можете прикреплять файлы к сообщениям
Вы можете скачивать файлы