Loading...
Error

Скачать Тринадцатый / XIII: The Series (Сезон 1 полный)(Дуан Кларк, Ален Тасма)[2011 г., боевик, BDRip] [720p] [DVO](AXN Sci-Fi Россия) торрент без регистрации

 
Статистика раздачи
Размер:  29,18 GB   |    Скачан:  130 раз
Сидов:  1  [  0 KB/s  ]  
 
Автор Сообщение

leon030982

[] 


Тринадцатый / XIII

Год выпуска: 2011
Страна: Канада, Франция
Жанр: боевик
Продолжительность: ~ 45 мин
Перевод: Профессиональный двухголосый закадровый(AXN Sci-Fi Россия)
Режиссёр: Дуан Кларк, Ален Тасма
Субтитры: нет
В ролях:
Стюарт Таунсенд, Вирджиния Ледуайен, Грег Брайк, Стивен МакХэтти, Паулино Нюнс, Аиша Тайлер, Катерина Мурино

Описание:
Первая в США женщина-президент убита метким снайперским выстрелом во время выступления в День ветеранов. Убийца не найден. Вскоре после этого в лесу находят таинственного парашютиста. Он ранен и не помнит абсолютно ничего из своего прошлого. На его груди загадочная татуировка — «XIII». Теперь молодому человеку предстоит понять кто он такой и попытаться раскрыть правительственный заговор...
Продолжение минисериала XIII вышедшего в 2008 году.
Качество: BDRip
Формат: MKV
Видео: AVC at 5 671 Kbps1280 x 720 (1.778) at 25.000 fps 0.246 bit/pixel
Аудио Rus: AC-3 at 192 Kbps 2 channels, 48.0 KHz
Аудио Eng: DTS at 1 510 Kbps 6 channels, 48.0 KHz
Субтитры Eng: SRT
Озвучка: AXN Sci-Fi Россия
Подготовка и запись звука: ЛП
Подготовка видео: ЛП

General
Unique ID : 209648186572498581683456822407262615936 (0x9DB8C5A3CCE6CEEE88DF20DD093FB980)
Complete name : G:\ФТП 2\Work\Other\XIII The Series Season 1 720p\XIII.s01e01.rus.eng.720p.mkv
Format : Matroska
Format version : Version 2
File size : 2.24 GiB
Duration : 43mn 34s
Overall bit rate : 7 375 Kbps
Encoded date : UTC 2012-01-17 11:56:49
Writing application : mkvmerge v4.9.1 ('Ich will') сборка от Jul 11 2011 23:53:15
Writing library : libebml v1.2.1 + libmatroska v1.1.1

Video
ID : 1
Format : AVC
Format/Info : Advanced Video Codec
Format profile : [url=mailto:High@L4.1]High@L4.1[/url]
Format settings, CABAC : Yes
Format settings, ReFrames : 5 frames
Codec ID : V_MPEG4/ISO/AVC
Duration : 43mn 34s
Bit rate : 5 671 Kbps
Width : 1 280 pixels
Height : 720 pixels
Display aspect ratio : 16:9
Frame rate : 25.000 fps
Color space : YUV
Chroma subsampling : 4:2:0
Bit depth : 8 bits
Scan type : Progressive
Bits/(Pixel*Frame) : 0.246
Stream size : 1.68 GiB (75%)
Writing library : x264 core 115 r2008 4c552d8
Encoding settings : cabac=1 / ref=5 / deblock=1:0:0 / analyse=0x3:0x113 / me=umh / subme=7 / psy=1 / psy_rd=1.00:0.15 / mixed_ref=1 / me_range=16 / chroma_me=1 / trellis=1 / 8x8dct=1 / cqm=0 / deadzone=21,11 / fast_pskip=0 / chroma_qp_offset=-3 / threads=18 / sliced_threads=0 / nr=0 / decimate=1 / interlaced=0 / bluray_compat=0 / constrained_intra=0 / bframes=3 / b_pyramid=2 / b_adapt=1 / b_bias=0 / direct=1 / weightb=1 / open_gop=0 / weightp=2 / keyint=250 / keyint_min=25 / scenecut=40 / intra_refresh=0 / rc_lookahead=40 / rc=2pass / mbtree=1 / bitrate=5671 / ratetol=1.0 / qcomp=0.60 / qpmin=0 / qpmax=69 / qpstep=4 / cplxblur=20.0 / qblur=0.5 / ip_ratio=1.40 / aq=1:1.00

Audio #1
ID : 2
Format : AC-3
Format/Info : Audio Coding 3
Mode extension : CM (complete main)
Codec ID : A_AC3
Duration : 43mn 34s
Bit rate mode : Constant
Bit rate : 192 Kbps
Channel(s) : 2 channels
Channel positions : Front: L R
Sampling rate : 48.0 KHz
Bit depth : 16 bits
Compression mode : Lossy
Stream size : 59.8 MiB (3%)
Language : Russian

Audio #2
ID : 3
Format : DTS
Format/Info : Digital Theater Systems
Codec ID : A_DTS
Duration : 43mn 34s
Bit rate mode : Constant
Bit rate : 1 510 Kbps
Channel(s) : 6 channels
Channel positions : Front: L C R, Side: L R, LFE
Sampling rate : 48.0 KHz
Bit depth : 24 bits
Compression mode : Lossy
Stream size : 471 MiB (20%)
Language : English

Text
ID : 4
Format : UTF-8
Codec ID : S_TEXT/UTF8
Codec ID/Info : UTF-8 Plain Text
Language : English
<ul type="1">
Пилот (Pilot)
Грин Фолз (Green Falls)
Изоляция (Lockdown)
Ирландская работа (The Irish Version)
Тренировочный лагерь (Training Camp)
Коста Верде (Costa Verde)
Откат (Undertow)
Охота на стороне (Hunting Party)
Ограбление банка (The Bank Job)
Поезд (The Train)
Бункер (The Bunker)
Ключ (The Key)
Разоблачение(Revelation)
</ul>



Скачать Тринадцатый.XIII.The.Series.(Сезон.1.полный)(Дуан.Кларк.Ален.Тасма)[2011.г.боевик.BDRip].[720p].[DVO](AXN.Sci-Fi.Россия).torrent без регистрации
Золото ЗОЛОТАЯ РАЗДАЧА! СКАЧАННОЕ НЕ ЗАСЧИТЫВАЕТСЯ! Золото
Дата: Зарегистрирован   [ Тип: внутренний ] Как тут cкачать?
MAGNET ссылка
MAGNET ссылка


Скачать .torrent

75 KB

Статус: проверено DHT
Скачан: торрент - 130 раз, раздача полностью - 30 раз
Размер: 29,18 GB
Оценка:  5 (Голосов: 1)
Поблагодарили: 2
Поделиться ссылкой на эту раздачу с друзьями:
В контактеFacebookОдноклассникиTwitterLivejournalМой МирLiveinternet
 

 
Показать сообщения:    


Вы не можете начинать темы
Вы не можете отвечать на сообщения
Вы не можете редактировать свои сообщения
Вы не можете удалять свои сообщения
Вы не можете голосовать в опросах
Вы не можете прикреплять файлы к сообщениям
Вы можете скачивать файлы