Loading...
Error

Скачать Дом духов / The House of the Spirits (Билле Аугусто) [1993, Драма, Исторический, DVDRip] [MVO] торрент без регистрации

 
Статистика раздачи
Размер:  1,46 GB   |    Скачан:  173 раза

Полного источника не было: 26 минут

 
Автор Сообщение

proljot2615

[] 


Дом духов / The House of the Spirits


Год выпуска: 1993
Выпущено: Германия, США, Дания
Жанр: Драма, Исторический
Продолжительность: 02:20:10.320
Перевод: Профессиональный (многоголосый)

Режиссер: Билле Аугусто
Сценарий: Изабель Альенде, Билле Аугусто.
Продюсеры: Бернд Айкингер, Дитер Мейер, Мартин Московиц, Марк Розенберг, Паула Вайнштейн.
Оператор: Йорген Перссон.
Композитор: Ханс Циммер, Себастьян Ирадьер.

В ролях: Мэрил Стрип, Гленн Клоуз, Джереми Айронс, Вайнона Райдер, Антонио Бандерас, Ванесса Редгрейв, Мария Кончита Алонсо, Армин Мюллер-Шталь, Ян Никлас, Сарита Чоудхури, Антонио Ассунсон, Julie Balloo, Фрэнк Бэйкер, Джоао Кебрал, Мигел Гильерми, Хосе Мора Рамос, Виктор Роча, Карлос Сезар, Александр Суза, Роджерио Кларо ...

Описание: Мстить или прощать? История о беспокойной жизни нескольких поколений одного знатного и богатого чилийского рода с 1926 года до начала 70-х годов. В доме крупного чилийского землевладельца, пережившего не одну беду — от «золотой лихорадки» до военного переворота Пиночета, не понаслышке знают, что такое мужество и огромная сила духа... А, как считает Изабель Альенде, чей роман лег в основу экранизации, «дух — это космическая энергия, которая если и поселяется, то не в одном человеке, а сразу в нескольких поколениях».







Качество: DVDRip
Формат: AVI
Видео кодек: XviD
Аудио кодек: MP3
Видео: 720x304 (2.37:1), 25 fps, XviD build 50 ~1348 kbps avg, 0.25 bit/pixel
Аудио: 48 kHz, MPEG Layer 3, 2 ch, ~128.00 kbps avg


Формат : AVI
Формат/Информация : Audio Video Interleave
Размер файла : 1,46 Гбайт
Продолжительность : 2 ч. 20 м.
Общий поток : 1490 Кбит/сек
Название фильма : Дом духов 1993
Программа кодирования : Lavf52.33.0

Видео
Идентификатор : 0
Формат : MPEG-4 Visual
Профиль формата : Simple@L3
Параметр BVOP формата : Нет
Параметр QPel формата : Нет
Параметр GMC формата : Без точки перехода
Параметр матрицы формата : Default (H.263)
Идентификатор кодека : XVID
Идентификатор кодека/Подсказка : XviD
Продолжительность : 2 ч. 20 м.
Битрейт : 1349 Кбит/сек
Ширина : 720 пикс.
Высота : 304 пикс.
Соотношение сторон : 2,35:1
Частота кадров : 25,000 кадр/сек
Цветовое пространство : YUV
Подвыборка цветности : 4:2:0
Битовая глубина : 8 бит
Тип развёртки : Прогрессивная
Метод сжатия : С потерями
Бит/(Пиксели*Кадры) : 0.247
Размер потока : 1,32 Гбайт (91%)
Библиотека кодирования : XviD 1.2.1 (UTC 2008-12-04)

Аудио
Идентификатор : 1
Формат : MPEG Audio
Версия формата : Version 1
Профиль формата : Layer 3
Режим : Joint stereo
Расширение режима : MS Stereo
Идентификатор кодека : 55
Идентификатор кодека/Подсказка : MP3
Продолжительность : 2 ч. 20 м.
Вид битрейта : Постоянный
Битрейт : 128 Кбит/сек
Каналы : 2 канала
Частота : 48,0 КГц
Метод сжатия : С потерями
Размер потока : 128 Мбайт (9%)
Выравнивание : Соединение по промежуткам
Продолжительность промежутка : 24 мс. (0,60 видеокадр)





Скачать Дом.духов.The.House.of.the.Spirits.(Билле.Аугусто).[1993.Драма.Исторический.DVDRip].[MVO].torrent без регистрации
Золото ЗОЛОТАЯ РАЗДАЧА! СКАЧАННОЕ НЕ ЗАСЧИТЫВАЕТСЯ! Золото
Дата: Зарегистрирован   [ Тип: внутренний ] Как тут cкачать?
MAGNET ссылка
MAGNET ссылка


Скачать .torrent

15 KB

Статус: проверено DHT
Скачан: торрент - 173 раз, раздача полностью - 2 раз
Размер: 1,46 GB
Оценка:  - (Голосов: 0)
Поблагодарили: 1
Поделиться ссылкой на эту раздачу с друзьями:
В контактеFacebookОдноклассникиTwitterLivejournalМой МирLiveinternet
 

 
Показать сообщения:    


Вы не можете начинать темы
Вы не можете отвечать на сообщения
Вы не можете редактировать свои сообщения
Вы не можете удалять свои сообщения
Вы не можете голосовать в опросах
Вы не можете прикреплять файлы к сообщениям
Вы можете скачивать файлы