Loading...
Error

Скачать Чертенок / Маленький Дьявол / Il Piccolo Diavolo (Роберто Бениньи) [1988, Фэнтези, комедия, BDRip] [AVO] торрент без регистрации

 
Статистика раздачи
Размер:  1,79 GB   |    Скачан:  148 раз

Полного источника не было: 9 месяцев

 
Автор Сообщение

Marsianka

[] 

Чертенок / Маленький Дьявол
Il Piccolo Diavolo

Страна: Италия
Жанр: Фэнтези, комедия
Год выпуска: 1988
Продолжительность: 01:45:18
Перевод: Авторский (одноголосый закадровый) [Андрей Мудров]
Субтитры: нет

Режиссёр: Роберто Бениньи / Roberto Benigni

В ролях: Уолтер Мэттау, Роберто Бениньи, Стефано Антонуччи, Паоло Барони, Паоло Баттичиотто, Флавио Боначи, Жулия Боржини, Биянка Мария Боррачетти, Николетта Браски, Роберто Корбилетто

Описание фильма: Из тела солидной прихожанки, одержимой бесом, священник изгнал дьявола. Он оказался маленьким таким, проворненьким, хитрым бесенком. Проблема номер один: куда теперь ему вселяться? И это была далеко не единственная проблема, возникшая в жизни священника.




Качество: BDRip
Формат: AVI
Видео: XviD; 720x400 (16:9); 2199 Kbps; 23,976 fps; 0,319 bpp
Аудио: AC3; 224 Kbps; CBR; 2 ch [Russian]











Общее
Полное имя : C:1988_Il_Piccolo_Diavolo.avi
Формат : AVI
Формат/Информация : Audio Video Interleave
Размер файла : 1,79 Гбайт
Продолжительность : 1 ч. 45 м.
Общий поток : 2433 Кбит/сек
Программа кодирования : VirtualDubMod 1.5.10.3 | www.virtualdub-fr.org || (build 2550/release)
Библиотека кодирования : VirtualDubMod build 2550/release

Видео
Идентификатор : 0
Формат : MPEG-4 Visual
Профиль формата : Advanced Simple@L5
Параметр BVOP формата : 1
Параметр QPel формата : Нет
Параметр GMC формата : Без точки перехода
Параметр матрицы формата : Default (MPEG)
Идентификатор кодека : XVID
Идентификатор кодека/Подсказка : XviD
Продолжительность : 1 ч. 45 м.
Битрейт : 2199 Кбит/сек
Ширина : 720 пикселей
Высота : 400 пикселей
Соотношение сторон : 16:9
Частота кадров : 23,976 кадра/сек
Цветовое пространство : YUV
Субдискретизация насыщенности : 4:2:0
Битовая глубина : 8 бит
Тип развёртки : Прогрессивная
Метод сжатия : С потерями
Бит/(Пиксели*Кадры) : 0.319
Размер потока : 1,62 Гбайт (90%)
Библиотека кодирования : XviD 1.2.1 (UTC 2008-12-04)

Аудио
Идентификатор : 1
Формат : AC-3
Формат/Информация : Audio Coding 3
Расширение режима : CM (complete main)
Идентификатор кодека : 2000
Продолжительность : 1 ч. 45 м.
Вид битрейта : Постоянный
Битрейт : 224 Кбит/сек
Каналы : 2 канала
Расположение каналов : Front: L R
Частота : 48,0 КГц
Битовая глубина : 16 бит
Метод сжатия : С потерями
Размер потока : 169 Мбайт (9%)
Выравнивание : Разделение по промежуткам
Продолжительность промежутка : 42 мс. (1,00 видеокадр)
Время предзагрузки промежутка : 500 мс.

Релиз от: sasikainen



Скачать Чертенок.Маленький.Дьявол.Il.Piccolo.Diavolo.(Роберто.Бениньи).[1988.Фэнтези.комедия.BDRip].[AVO].torrent без регистрации
Золото ЗОЛОТАЯ РАЗДАЧА! СКАЧАННОЕ НЕ ЗАСЧИТЫВАЕТСЯ! Золото
Дата: Зарегистрирован   [ Тип: внутренний ] Как тут cкачать?
MAGNET ссылка
MAGNET ссылка


Скачать .torrent

18 KB

Статус: проверено
Скачан: торрент - 148 раз, раздача полностью - 73 раз
Размер: 1,79 GB
Оценка:  - (Голосов: 0)
Поблагодарили: 1
Поделиться ссылкой на эту раздачу с друзьями:
В контактеFacebookОдноклассникиTwitterLivejournalМой МирLiveinternet
 

 
Показать сообщения:    


Вы не можете начинать темы
Вы не можете отвечать на сообщения
Вы не можете редактировать свои сообщения
Вы не можете удалять свои сообщения
Вы не можете голосовать в опросах
Вы не можете прикреплять файлы к сообщениям
Вы можете скачивать файлы