Loading...
Error

Скачать Борис и Наташа / Boris and Natasha (Чарльз Мартин Смит / Charles Martin Smith) [1992,Боевик, комедия, TVRip] [DVO] торрент без регистрации

 
Статистика раздачи
Размер:  702 MB   |    Скачан:  134 раза
Сидов:  1  [  0 KB/s  ]  
 
Автор Сообщение

Jenek

[] 

Борис и Наташа / Boris and Natasha

«It's Good to be Bad!»

Страна: США
Жанр: Боевик, комедия
Год выпуска: 1992
Продолжительность: 01:23:27
Перевод: Профессиональный (двухголосый закадровый) [НТВ+]
Субтитры: нет

Режиссёр: Чарльз Мартин Смит / Charles Martin Smith

В ролях: Салли Келлерман, Дэйв Томас, Андреа Мартин, Джон Кэлвин, Пэкстон Уайтхед, Ларри Седар, Кристофер Ним, Алекс Рокко, Джон Кэнди, Энтони Ньюли

Описание фильма: Борис Бадунов и Наташа Фаталь, шпионы из маленькой страны Поттсильвании, должны украсть в Америке микрочип, который поворачивает время вспять.




Качество: TVRip
Формат: AVI
Видео: XviD; 640x480 (4:3); 1037 Kbps; 25 fps; 0,135 bpp
Аудио: MPEG-1 Audio layer 3; 128 Kbps; CBR; 2 ch [Russian]









Общее
Формат : AVI
Формат/Информация : Audio Video Interleave
Размер файла : 702 Мбайт
Продолжительность : 1 ч. 23 м.
Общий поток : 1176 Кбит/сек
Название фильма : Boris and Natasha (1992)
Программа кодирования : VirtualDubMod 1.5.10.2 (build 2540/release)VirtualDubMod build 2540

Видео
Идентификатор : 0
Формат : MPEG-4 Visual
Профиль формата : Advanced Simple@L5
Параметр BVOP формата : 1
Параметр QPel формата : Нет
Параметр GMC формата : Без точки перехода
Параметр матрицы формата : Default (H.263)
Идентификатор кодека : XVID
Идентификатор кодека/Подсказка : XviD
Продолжительность : 1 ч. 23 м.
Битрейт : 1038 Кбит/сек
Ширина : 640 пикселей
Высота : 480 пикселей
Соотношение сторон : 4:3
Частота кадров : 25,000 кадров/сек
Цветовое пространство : YUV
Субдискретизация насыщенности : 4:2:0
Битовая глубина : 8 бит
Тип развёртки : Прогрессивная
Метод сжатия : С потерями
Бит/(Пиксели*Кадры) : 0.135
Размер потока : 620 Мбайт (88%)
Библиотека кодирования : XviD 1.2.1 (UTC 2008-12-04)

Аудио
Идентификатор : 1
Формат : MPEG Audio
Версия формата : Version 1
Профиль формата : Layer 3
Идентификатор кодека : 55
Идентификатор кодека/Подсказка : MP3
Продолжительность : 1 ч. 23 м.
Вид битрейта : Постоянный
Битрейт : 128 Кбит/сек
Каналы : 2 канала
Частота : 48,0 КГц
Метод сжатия : С потерями
Размер потока : 76,4 Мбайт (11%)
Выравнивание : Соединение по промежуткам
Продолжительность промежутка : 40 мс. (1,00 видеокадр)
Время предзагрузки промежутка : 504 мс.
Библиотека кодирования : LAME3.98r
Настройки программы : -m s -V 4 -q 2 -lowpass 17 -b 128
Язык : 5




Скачать Борис.и.Наташа.Boris.and.Natasha.(Чарльз.Мартин.Смит.Charles.Martin.Smith).[1992.Боевик.комедия.TVRip].[DVO].torrent без регистрации
Золото ЗОЛОТАЯ РАЗДАЧА! СКАЧАННОЕ НЕ ЗАСЧИТЫВАЕТСЯ! Золото
Дата: Зарегистрирован   [ Тип: внутренний ] Как тут cкачать?
MAGNET ссылка
MAGNET ссылка


Скачать .torrent

14 KB

Статус: проверено DHT
Скачан: торрент - 134 раз, раздача полностью - 3 раз
Размер: 702 MB
Оценка:  - (Голосов: 0)
Поблагодарили: 1
Поделиться ссылкой на эту раздачу с друзьями:
В контактеFacebookОдноклассникиTwitterLivejournalМой МирLiveinternet
 

 
Показать сообщения:    


Вы не можете начинать темы
Вы не можете отвечать на сообщения
Вы не можете редактировать свои сообщения
Вы не можете удалять свои сообщения
Вы не можете голосовать в опросах
Вы не можете прикреплять файлы к сообщениям
Вы можете скачивать файлы