Loading...
Error

Скачать Большой Стэн / Big Stan (Роб Шнайдер) [2007, Комедия, DVDRip] [Dub] торрент без регистрации

 
Статистика раздачи
Размер:  731 MB   |    Скачан:  125 раз
Сидов:  1  [  0 KB/s  ]  
 
Автор Сообщение

Marsianka

[] 

Информация о фильме
Название: Большой Стэн
Оригинальное название: Big Stan
Год выхода: 2007
Жанр: Комедия
Режиссер: Роб Шнайдер
В ролях: Роб Шнайдер, Дэвид Кэррадайн, М. Эммет Уолш, Саймон Ри, Рэнди Кутюр, Боб Сапп, Биг Спенс, Скотт Уилсон, Цуёши Абе, Т.Дж. Амато

О фильме:
Стэн в панике его ждет срок за мошенничество. И его очень пугает надвигающееся тюремное заключение. Чтобы обезопасить себя от разного рода неожиданностей, Стэн обращается за помощью к Мастеру боевых искусств, который сможет научить его паре приемов.



Страна: США
Продолжительность: 01:44:36
Перевод: Дублированное

Файл
Кодек: XviD
Качество: DVDRip
Видео: 836 kb/s, 672x352
Звук:
MP3, 128 kb/s (2 ch)
General
Complete name : Большой Стэн.avi
Format : AVI
Format/Info : Audio Video Interleave
File size : 731 MiB
Duration : 1h 44mn
Overall bit rate : 976 Kbps
Writing application : MEncoder SVN-r22963
Writing library : MPlayer

Video
ID : 0
Format : MPEG-4 Visual
Format profile : Simple@L1
Format settings, BVOP : No
Format settings, QPel : No
Format settings, GMC : No warppoints
Format settings, Matrix : Default (H.263)
Codec ID : XVID
Codec ID/Hint : XviD
Duration : 1h 44mn
Bit rate : 836 Kbps
Width : 672 pixels
Height : 352 pixels
Display aspect ratio : 1.909
Frame rate : 25.000 fps
Color space : YUV
Chroma subsampling : 4:2:0
Bit depth : 8 bits
Scan type : Progressive
Compression mode : Lossy
Bits/(Pixel*Frame) : 0.141
Stream size : 626 MiB (86%)
Writing library : Lavc51.40.2

Audio
ID : 1
Format : MPEG Audio
Format version : Version 1
Format profile : Layer 3
Codec ID : 55
Codec ID/Hint : MP3
Duration : 1h 44mn
Bit rate mode : Constant
Bit rate : 128 Kbps
Channel(s) : 2 channels
Sampling rate : 44.1 KHz
Compression mode : Lossy
Stream size : 95.8 MiB (13%)
Alignment : Aligned on interleaves
Interleave, duration : 26 ms (0.65 video frame)
Interleave, preload duration : 522 ms
Writing library : LAME3.97ґґґґґґґґґґґґ



Скачать Большой.Стэн.Big.Stan.(Роб.Шнайдер).[2007.Комедия.DVDRip].[Dub].torrent без регистрации
Золото ЗОЛОТАЯ РАЗДАЧА! СКАЧАННОЕ НЕ ЗАСЧИТЫВАЕТСЯ! Золото
Дата: Зарегистрирован   [ Тип: внутренний ] Как тут cкачать?
MAGNET ссылка
MAGNET ссылка


Скачать .torrent

15 KB

Статус: проверено DHT
Скачан: торрент - 125 раз, раздача полностью - 31 раз
Размер: 731 MB
Оценка:  5 (Голосов: 1)
Поблагодарили: 1
Поделиться ссылкой на эту раздачу с друзьями:
В контактеFacebookОдноклассникиTwitterLivejournalМой МирLiveinternet
 

 
Показать сообщения:    


Вы не можете начинать темы
Вы не можете отвечать на сообщения
Вы не можете редактировать свои сообщения
Вы не можете удалять свои сообщения
Вы не можете голосовать в опросах
Вы не можете прикреплять файлы к сообщениям
Вы можете скачивать файлы