Loading...
Error

Скачать Касс / Cass (Джон С. Бейрд / Jon S. Baird) [2008, драма, криминал, биография, HDRip] [VO (zamez)] торрент без регистрации

 
Статистика раздачи
Размер:  747 MB   |    Скачан:  122 раза
Сидов:  1  [  0 KB/s  ]  
 
Автор Сообщение

Jenek

[] 

Касс / Cass
«The hardest fight is knowing who you are.»
Страна: Великобритания
Жанр: драма, криминал, биография
Год выпуска: 2008
Продолжительность: 01:48:32
Перевод : Одноголосый закадровый - zamez

Cубтитры: нет
Режиссер: Джон С. Бейрд / Jon S. Baird
В ролях: Нонсо Анози, Натали Пресс, Лео Грегори, Гэвин Брокер, Тигги Аллен, Хелен Андерсон, Ник Бартлетт, Линда Бэссет, Джеффри Биверс, Джек Бенс
Описание: Невероятно правдивая история о том, как бездомный сирота из Ямайки, усыновлённый пожилой белой парой и выросший в обеспеченном белом районе Лондона, стал одним из самых опасных и уважаемых людей в Британии. Касс рос во времена реформ и повсеместного насаждения политкорректности и толерантности и был вынужден ежедневно сталкиваться с расизмом и унижениями на расовой почве, пока однажды годами сдерживаемый гнев не вылился из него наружу. Он добился уважения, которого никогда не имел, через борьбу и насилие и окунулся в эту стихию с головой. Его образ жизни чуть не довёл его до смерти, когда в него трижды стреляли. Его внутренняя сила помогла ему выжить, но поставила перед дилеммой: либо мстить, как учила его улица, либо завязать со своим прошлым. Это история его жизни…
SAMPLE

Качество видео:
Формат видео: AVI
Видео: XviD, 624x352 (16:9), 23.976 fps, 825 kbps avg, 0.157 bit/pixel
Аудио : 48 kHz, MPEG Layer 3, 2 ch, ~128.00 kbps avg
General
Complete name : E:\My torrents\Cass.2008.zamez.avi
Format : AVI
Format/Info : Audio Video Interleave
File size : 747 MiB
Duration : 1h 48mn
Overall bit rate : 963 Kbps
Writing application : VirtualDubMod 1.5.10.3 | www.virtualdub-fr.org || (build 2550/release)
Writing library : VirtualDubMod build 2550/release
Video
ID : 0
Format : MPEG-4 Visual
Format profile : Advanced Simple@L5
Format settings, BVOP : 2
Format settings, QPel : No
Format settings, GMC : No warppoints
Format settings, Matrix : Custom
Codec ID : XVID
Codec ID/Hint : XviD
Duration : 1h 48mn
Bit rate : 825 Kbps
Width : 624 pixels
Height : 352 pixels
Display aspect ratio : 16:9
Frame rate : 23.976 fps
Color space : YUV
Chroma subsampling : 4:2:0
Bit depth : 8 bits
Scan type : Progressive
Compression mode : Lossy
Bits/(Pixel*Frame) : 0.157
Stream size : 641 MiB (86%)
Writing library : XviD 64
Audio
ID : 1
Format : MPEG Audio
Format version : Version 1
Format profile : Layer 3
Mode : Joint stereo
Mode extension : MS Stereo
Codec ID : 55
Codec ID/Hint : MP3
Duration : 1h 48mn
Bit rate mode : Constant
Bit rate : 128 Kbps
Channel(s) : 2 channels
Sampling rate : 48.0 KHz
Compression mode : Lossy
Stream size : 99.4 MiB (13%)
Alignment : Aligned on interleaves
Interleave, duration : 42 ms (1.00 video frame)
Interleave, preload duration : 504 ms
Writing library : LAME3.99
Encoding settings : -m j -V 4 -q 2 -lowpass 17 -b 128



Скачать Касс.Cass.(Джон.С.Бейрд.Jon.S.Baird).[2008.драма.криминал.биография.HDRip].[VO.(zamez)].torrent без регистрации
Золото ЗОЛОТАЯ РАЗДАЧА! СКАЧАННОЕ НЕ ЗАСЧИТЫВАЕТСЯ! Золото
Дата: Зарегистрирован   [ Тип: внутренний ] Как тут cкачать?
MAGNET ссылка
MAGNET ссылка


Скачать .torrent

15 KB

Статус: проверено DHT
Скачан: торрент - 122 раз, раздача полностью - 46 раз
Размер: 747 MB
Оценка:  - (Голосов: 0)
Поблагодарили: 3
Поделиться ссылкой на эту раздачу с друзьями:
В контактеFacebookОдноклассникиTwitterLivejournalМой МирLiveinternet
 

 
Показать сообщения:    


Вы не можете начинать темы
Вы не можете отвечать на сообщения
Вы не можете редактировать свои сообщения
Вы не можете удалять свои сообщения
Вы не можете голосовать в опросах
Вы не можете прикреплять файлы к сообщениям
Вы можете скачивать файлы