Loading...
Error

Скачать Волкодав из рода Серых Псов (Николай Лебедев) [2006 г., Фэнтези, BDRip] торрент без регистрации

 
Статистика раздачи
Размер:  1,46 GB   |    Скачан:  160 раз

Полного источника не было: 28 минут

 
Автор Сообщение

МихаНЕзатор

[] 

Волкодав из рода Серых Псов
Год выпуска: 2006
Жанр: Фэнтези
Продолжительность: 02:21:59.482 (204263 frames)
Режиссер: Николай Лебедев

В ролях: Александр Бухаров, Оксана Акиньшина, Игорь Петренко, Анатолий Белый, Юозас Будрайтис, Александр Домогаров, Артем Семакин, Евгения Свиридова, Андрей Руденский, Наталья Варлей, Нина Усатова
Описание: Он был обречен на гибель, но выжил, чтобы отомстить за истребление своего рода. Последний человек из племени Серых Псов стал могучим воином, называющим себя Волкодав. Избежав смерти в подземных рудниках, Волкодав пускается в путь в сопровождении своего спутника, Нелетучего Мыша. Волкодав одержим желанием покарать Людоеда, уничтожившего деревню Серых Псов. Добравшись до замка заклятого врага, Волкодав жестоко расправляется с Людоедом. Там же он освобождает двух пленников, мудреца Тилорна и рабыню Ниилит. Вместе с ними Волкодав попадает в город Галирад, переживающий смутные времена. Кнес Галирада, стремясь спасти город от разорения, сватает свою дочь Елень за молодого воина Винитара, обещающего защиту Галираду. Юной кнесинке предстоит дальняя дорога в земли будущего мужа. Она просит Волкодава стать ее телохранителем в опасном путешествии. Согласившись служить кнесинке, Волкодав оказывается втянутым в водоворот таинственных событий, проливающих свет на истинную цель поездки...

Качество: BDRip
Формат: AVI
Видео кодек: XviD
Аудио кодек: AC3
Видео: 720x304 (2.37:1), 23.976 fps, XviD build 50 ~1275 kbps avg, 0.24 bit/pixel
Аудио: 48 kHz, AC3 Dolby Digital, 2/0 (L,R) ch, ~192.00 kbps avg
General
Complete name : E:\001 МОИ РАЗДАЧИ\Волкодав из рода серых псов 1,46\volkodav_1.46_[torrents.ru]_by_bm11.avi
Format : AVI
Format/Info : Audio Video Interleave
File size : 1.46 GiB
Duration : 2h 21mn
Overall bit rate : 1 477 Kbps
Writing application : VirtualDubMod 1.5.10.2 (build 2540/release)
Writing library : VirtualDubMod build 2540/release
Video
Format : MPEG-4 Visual
Format profile : Streaming Video@L1
Format settings, BVOP : Yes
Format settings, QPel : No
Format settings, GMC : No warppoints
Format settings, Matrix : Custom
Codec ID : XVID
Codec ID/Hint : XviD
Duration : 2h 21mn
Bit rate : 1 276 Kbps
Width : 720 pixels
Height : 304 pixels
Display aspect ratio : 2.35
Frame rate : 23.976 fps
Resolution : 24 bits
Colorimetry : 4:2:0
Scan type : Progressive
Bits/(Pixel*Frame) : 0.243
Stream size : 1.27 GiB (86%)
Writing library : XviD 50
Audio
Format : AC-3
Format/Info : Audio Coding 3
Codec ID : 2000
Duration : 2h 21mn
Bit rate mode : Constant
Bit rate : 192 Kbps
Channel(s) : 2 channels
Channel positions : L R
Sampling rate : 48.0 KHz
Stream size : 195 MiB (13%)
Alignment : Split accross interleaves
Interleave, duration : 42 ms (1.00 video frame)
Interleave, preload duration : 500 ms



Скачать Волкодав.из.рода.Серых.Псов.(Николай.Лебедев).[2006.г.Фэнтези.BDRip].torrent без регистрации
Золото ЗОЛОТАЯ РАЗДАЧА! СКАЧАННОЕ НЕ ЗАСЧИТЫВАЕТСЯ! Золото
Дата: Зарегистрирован   [ Тип: внутренний ] Как тут cкачать?
MAGNET ссылка
MAGNET ссылка


Скачать .torrent

15 KB

Статус: проверено DHT
Скачан: торрент - 160 раз, раздача полностью - 54 раз
Размер: 1,46 GB
Оценка:  5 (Голосов: 2)
Поблагодарили: 3
Поделиться ссылкой на эту раздачу с друзьями:
В контактеFacebookОдноклассникиTwitterLivejournalМой МирLiveinternet
 

 
Показать сообщения:    


Вы не можете начинать темы
Вы не можете отвечать на сообщения
Вы не можете редактировать свои сообщения
Вы не можете удалять свои сообщения
Вы не можете голосовать в опросах
Вы не можете прикреплять файлы к сообщениям
Вы можете скачивать файлы