Loading...
Error

Скачать Джентльмены удачи (Александр Серый) [1971, драма, комедия, криминал, детектив, BDRip] [1080p] торрент без регистрации

Статистика раздачи
Размер:  4,37 GB   |    Скачан:  438 раз
Сидов:  1  [  0 KB/s  ]  
 
 
 
Автор Сообщение

МихаНЕзатор

[] 

Информация о фильме
Название: Джентльмены удачи
Год выхода: 1971
Жанр: драма, комедия, криминал, детектив
Режиссер: Александр Серый

В ролях: Евгений Леонов, Георгий Вицин, Раднэр Муратов, Савелий Крамаров, Наталья Фатеева, Эраст Гарин, Николай Олялин, Анатолий Папанов, Павел Шпрингфельд, Любовь Соколова

О фильме: Заведующему детсадом Трошкину фатально не повезло: он оказался как две капли воды похож на бандита по кличке «Доцент», похитившего уникальный шлем Александра Македонского.

Милиция внедряет добряка Трошкина в воровскую среду и ему ничего не остается, кроме как старательно изображать своего двойника-злодея, путая всех окружающих. Со временем он настолько блестяще входит в роль, что сам начинает порой приходить в ужас. Между тем, жизни его угрожает смертельная опасность

Выпущено: Мосфильм
Продолжительность: 01:26:44
Перевод: Оригинал

Файл
Кодек: x264
Качество: BDRip (источник: Blu-ray Disc)
Видео: 1424x1080 (4:3), 23.976 fps, 6766 kbps
Звук: 48 kHz, AC-3, 6 ch, 448 kbps

Общее
Уникальный идентификатор : 236076716302533013814696234858147106557 (0xB19AB8C1FBFC97D0851B4FB19B324EFD)
Полное имя : Dzhentlmeny.udachi.1971.BDRip.1080p.Rus.mkv
Формат : Matroska
Версия формата : Version 2
Размер файла : 4,37 Гбайт
Продолжительность : 1 ч. 26 м.
Общий поток : 7216 Кбит/сек
Название фильма : Джентльмены удачи (1971)
Дата кодирования : UTC 2012-03-16 08:24:19
Программа кодирования : mkvmerge v4.0.0 ('The Stars were mine') сборка от Jun 6 2010 16:18:42
Библиотека кодирования : libebml v1.0.0 + libmatroska v1.0.0

Видео
Идентификатор : 1
Формат : AVC
Формат/Информация : Advanced Video Codec
Профиль формата : High@L4.1
Параметр CABAC формата : Да
Параметр ReFrames формата : 4 кадра
Идентификатор кодека : V_MPEG4/ISO/AVC
Продолжительность : 1 ч. 26 м.
Битрейт : 6766 Кбит/сек
Ширина : 1424 пикселя
Высота : 1080 пикселей
Соотношение сторон : 4:3
Частота кадров : 23,976 кадра/сек
Цветовое пространство : YUV
Субдискретизация насыщенности : 4:2:0
Битовая глубина : 8 бит
Тип развёртки : Прогрессивная
Бит/(Пиксели*Кадры) : 0.183
Размер потока : 4,01 Гбайт (92%)
Заголовок : Release by AlexKa
Библиотека кодирования : x264 core 122 r2184 5c85e0a
Настройки программы : cabac=1 / ref=4 / deblock=1:0:0 / analyse=0x3:0x133 / me=umh / subme=10 / psy=1 / psy_rd=1.00:0.10 / mixed_ref=1 / me_range=32 / chroma_me=1 / trellis=2 / 8x8dct=1 / cqm=0 / deadzone=21,11 / fast_pskip=0 / chroma_qp_offset=-3 / threads=12 / sliced_threads=0 / nr=0 / decimate=0 / interlaced=0 / bluray_compat=0 / constrained_intra=0 / bframes=5 / b_pyramid=2 / b_adapt=2 / b_bias=0 / direct=3 / weightb=1 / open_gop=0 / weightp=2 / keyint=240 / keyint_min=23 / scenecut=40 / intra_refresh=0 / rc_lookahead=60 / rc=2pass / mbtree=1 / bitrate=6766 / ratetol=1.0 / qcomp=0.60 / qpmin=0 / qpmax=69 / qpstep=4 / cplxblur=20.0 / qblur=0.5 / ip_ratio=1.40 / aq=1:1.00
Язык : Russian

Аудио
Идентификатор : 2
Формат : AC-3
Формат/Информация : Audio Coding 3
Расширение режима : CM (complete main)
Идентификатор кодека : A_AC3
Продолжительность : 1 ч. 26 м.
Вид битрейта : Постоянный
Битрейт : 448 Кбит/сек
Каналы : 6 каналов
Расположение каналов : Front: L C R, Side: L R, LFE
Частота : 48,0 КГц
Битовая глубина : 16 бит
Метод сжатия : С потерями
Размер потока : 278 Мбайт (6%)
Язык : Russian

Меню
00:00:00.000 : :Chapter 01
00:07:36.956 : :Chapter 02
00:14:13.227 : :Chapter 03
00:17:12.573 : :Chapter 04
00:24:43.064 : :Chapter 05
00:29:42.489 : :Chapter 06
00:33:08.277 : :Chapter 07
00:39:24.653 : :Chapter 08
00:42:40.182 : :Chapter 09
00:48:23.901 : :Chapter 10
00:58:45.396 : :Chapter 11
01:03:47.698 : :Chapter 12
01:04:44.755 : :Chapter 13
01:14:36.930 : :Chapter 14
01:20:04.508 : :Chapter 15
01:24:35.403 : :Chapter 16
01:26:43.198 : :Chapter 17



Скачать Джентльмены.удачи.(Александр.Серый).[1971.драма.комедия.криминал.детектив.BDRip].[1080p].torrent без регистрации
Золото ЗОЛОТАЯ РАЗДАЧА! СКАЧАННОЕ НЕ ЗАСЧИТЫВАЕТСЯ! Золото
Дата: Зарегистрирован   [ Тип: внутренний ] Как тут cкачать?
MAGNET ссылка
MAGNET ссылка


Скачать .torrent

22 KB

Статус: проверено DHT
Скачан: торрент - 438 раз, раздача полностью - 744 раз
Размер: 4,37 GB
Оценка:  5 (Голосов: 3)
Поблагодарили: 12
Поделиться ссылкой на эту раздачу с друзьями:
В контактеFacebookОдноклассникиTwitterLivejournalМой МирLiveinternet
 

 

еремей

[] 

ag ay
 
Показать сообщения:    


Вы не можете начинать темы
Вы не можете отвечать на сообщения
Вы не можете редактировать свои сообщения
Вы не можете удалять свои сообщения
Вы не можете голосовать в опросах
Вы не можете прикреплять файлы к сообщениям
Вы можете скачивать файлы