Loading...
Error

Скачать Изгнанники / Stranded (Флеминг Б. Фуллер (Текс Фуллер)) [1987, фантастика, LDRip] [AVO] (Юрий Живов) торрент без регистрации

 
Статистика раздачи
Размер:  772 MB   |    Скачан:  149 раз

Полного источника не было: 24 минуты

 
Автор Сообщение

leon030982

[] 

Изгнанники / Stranded
Страна: США
Жанр: Фантастика
Год выпуска: 1987
Продолжительность: 01:20:53
Перевод: Авторский (одноголосый закадровый) (Юрий Живов)
Cубтитры: нет
Оригинальная аудиодорожка: английский
Режиссер: Флеминг Б. Фуллер (Текс Фуллер)
В ролях: Айони (Иона) Скай /Ione Skye, Джо Мортон /Joe Morton, Камерон Дай /Cameron Dye, Морин О'Салливан /Maureen O'Sullivan, Сьюзан Барнс /Susan Barnes, Гэри Суонсон /Gary Swanson, Гарри Сизар /Harry Caesar, Кевин Хейли /Kevin Haley, Натан Ле Гранд /Nathan Le Grand

Описание: Юная Дэйдра Кларк, живущая у своей бабушки на отдалённой ферме, становится свидетелем необычной молнии, ударившей недалеко от дома. Через несколько минут хозяева оказываются заложниками пятерых человекоподобных существ - межгалактических беженцев, ищущих, как оказалось, укрытие от ужасного монстра-убийцы. (Vonavi)

Сэмпл: http://multi-up.com/668246
Релиз
Рип неизвестного автора (CG)
Обработка русской звуковой дорожки (VHS), микс и синхронизация: Ivanov (Vonavi)

Качество видео: LDRip
Формат видео: AVI
Видео: 576x432 (1.33:1), 23.976 fps, XviD build 46 ~1063 kbps avg, 0.18 bit/pixel
Аудио: 48 kHz, MPEG Layer 3, 2 ch, 128.00 kbps (Юрий Живов)
Аудио 2: 48 kHz, MPEG Layer 3, 2 ch, 128.00 kbps (англ.)
Полное имя : D:\Izgnanniki.1987.Xvid.LDRip.avi
Формат : AVI
Формат/Информация : Audio Video Interleave
Размер файла : 772 Мбайт
Продолжительность : 1 ч. 20 м.
Общий поток : 1335 Кбит/сек
Программа кодирования : VirtualDubMod 1.5.10.2 (build 2542/release)
Библиотека кодирования : VirtualDubMod build 2542/release
Видео
Идентификатор : 0
Формат : MPEG-4 Visual
Профиль формата : Advanced Simple@L5
Параметр BVOP формата : 2
Параметр QPel формата : Нет
Параметр GMC формата : Без точки перехода
Параметр матрицы формата : Default (H.263)
Идентификатор кодека : XVID
Идентификатор кодека/Подсказка : XviD
Продолжительность : 1 ч. 20 м.
Битрейт : 1065 Кбит/сек
Ширина : 576 пикс.
Высота : 432 пикс.
Соотношение сторон : 4:3
Частота кадров : 23,976 кадр/сек
Цветовое пространство : YUV
Подвыборка цветности : 4:2:0
Битовая глубина : 8 бит
Тип развёртки : Прогрессивная
Метод сжатия : С потерями
Бит/(Пиксели*Кадры) : 0.178
Размер потока : 616 Мбайт (80%)
Библиотека кодирования : XviD 1.1.2 (UTC 2006-11-01)
Аудио #1
Идентификатор : 1
Формат : MPEG Audio
Версия формата : Version 1
Профиль формата : Layer 3
Идентификатор кодека : 55
Идентификатор кодека/Подсказка : MP3
Продолжительность : 1 ч. 20 м.
Вид битрейта : Постоянный
Битрейт : 128 Кбит/сек
Канал(ы) : 2 канала(ов)
Частота : 48,0 КГц
Метод сжатия : С потерями
Размер потока : 74,1 Мбайт (10%)
Выравнивание : Соединение по промежуткам
Продолжительность промежутка : 42 мс. (1,00 видеокадр)
Время предзагрузки промежутка : 504 ms
Аудио #2
Идентификатор : 2
Формат : MPEG Audio
Версия формата : Version 1
Профиль формата : Layer 3
Режим : Joint stereo
Идентификатор кодека : 55
Идентификатор кодека/Подсказка : MP3
Продолжительность : 1 ч. 20 м.
Вид битрейта : Постоянный
Битрейт : 128 Кбит/сек
Канал(ы) : 2 канала(ов)
Частота : 48,0 КГц
Метод сжатия : С потерями
Размер потока : 74,1 Мбайт (10%)
Выравнивание : Соединение по промежуткам
Продолжительность промежутка : 42 мс. (1,00 видеокадр)
Время предзагрузки промежутка : 504 ms



Скачать Изгнанники.Stranded.(Флеминг.Б.Фуллер.(Текс.Фуллер)).[1987.фантастика.LDRip].[AVO].(Юрий.Живов).torrent без регистрации
Золото ЗОЛОТАЯ РАЗДАЧА! СКАЧАННОЕ НЕ ЗАСЧИТЫВАЕТСЯ! Золото
Дата: Зарегистрирован   [ Тип: внутренний ] Как тут cкачать?
MAGNET ссылка
MAGNET ссылка


Скачать .torrent

16 KB

Статус: проверено DHT
Скачан: торрент - 149 раз, раздача полностью - 14 раз
Размер: 772 MB
Оценка:  - (Голосов: 0)
Поблагодарили: 2
Поделиться ссылкой на эту раздачу с друзьями:
В контактеFacebookОдноклассникиTwitterLivejournalМой МирLiveinternet
 

 

leon030982

[] 

неплохое кино ab
 

Shara

[] 

leon030982

Сейчас Lasrdisc уже не выпускается, это уже давно ушло в прошлое, теперь остались только DVD и BluRay.

А Laserdisc выпускался в 80-90 годах прошлого тысячелетия, тогда еще не было DVD, и Laserdisc действительно было лучшее качество, доступное на тот момент.
 

leon030982

[] 

Shara писал(а):

leon030982

Сейчас Lasrdisc уже не выпускается, это уже давно ушло в прошлое, теперь остались только DVD и BluRay.

А Laserdisc выпускался в 80-90 годах прошлого тысячелетия, тогда еще не было DVD, и Laserdisc действительно было лучшее качество, доступное на тот момент.
так и есть ab скоро и DVD уйдёт в небытиё ag
 

Shara

[] 

leon030982

Дааа, бежит время. Помню, как в детстве поразил меня первый увиденный мной Laserdisc, по сравнению с VHS и Betamax тогда это был огромный технологический прорыв ag
 

leon030982

[] 

Shara писал(а):

leon030982

Дааа, бежит время. Помню, как в детстве поразил меня первый увиденный мной Laserdisc, по сравнению с VHS и Betamax тогда это был огромный технологический прорыв ag
было такое ag помниться я от этого фильма в шоке был http://goldenshara.com/viewtopic.php?t=111690 а недавно смотрел и смеялся ag хотя он всеравно лучше многих современных ab
 
Показать сообщения:    


Вы не можете начинать темы
Вы не можете отвечать на сообщения
Вы не можете редактировать свои сообщения
Вы не можете удалять свои сообщения
Вы не можете голосовать в опросах
Вы не можете прикреплять файлы к сообщениям
Вы можете скачивать файлы