Loading...
Error

Скачать Чужая нация / Нация пришельцев / Чужой народ / Alien Nation (Грэм Бейкер) [1988, фантастика, триллер, драма, криминал, HDTVRip-AVC] [MVO] + 2x[AVO] торрент без регистрации

 
Статистика раздачи
Размер:  2,18 GB   |    Скачан:  151 раз

Полного источника не было: 1 год 2 месяца

 
Автор Сообщение

leon030982

[] 


Чужая нация / Нация пришельцев / Чужой народ

Alien Nation

Страна: США
Жанр: фантастика, триллер, драма, криминал
Год выпуска: 1988
Продолжительность: 01:26:09
Перевод 1: Профессиональный (многоголосый закадровый)
Перевод 2: Авторский (одноголосый закадровый) - Гаврилов
Перевод 3: Авторский (одноголосый закадровый) - Дохалов
Оригинальная аудиодорожка: английский
Cубтитры: нет
Режиссер: Грэм Бейкер
В ролях: Джеймс Каан, Мэнди Пэтинкин, Теренс Стэмп, Кевин Мейджор Ховард, Лесли Бевис, Питер Джейсон, Конрад Данн, Джефф Кобер, Роджер Аарон Браун, Тони Саймотс

Описание:
В пустыне Мохаве потерпел крушение огромный инопланетный космический корабль, перевозивший 250 тысяч рабов из разных концов Галактики. Пришельцы стали жить среди людей, многие из которых были очень враждебно настроены по отношению к «отбросам Вселенной».
Среди них — детектив Мэттью Сайкс, напарник которого погиб в перестрелке с бандой пришельцев. Перебирая бумаги погибшего друга, Мэттью делает открытие: его убили за то, что он пытался выяснить, почему пришельцы так слепо повиновались своим бывшим хозяевам.
Когда в городе начинают находить трупы пришельцев, умерших от странной болезни, а на страницы газет попадает снимок чудовищной насекомообразной твари, Мэттью и его новый напарник, пришелец Джордж, вынуждены работать рука об руку, чтобы раскрыть тайну этих событий…


IMDb: 6.10 (6 732)
Семпл: 22,2мб
Качество:HDTVRip-AVC {by big1987}
Формат видео: MKV
Видео: кодек: h.264, размер кадра: 1084x464, битрейт: 2657.50 Kbps, Bits/(Pixel*Frame): 0.211
Аудио 1: аудиокодек: AC3 5.1, 48 KHz, битрейт аудио: 384 кб/с - Многоголосный
Аудио 2: аудиокодек: AC3 2.0, 48 KHz, битрейт аудио: 192 кб/с - Авторский, Гаврилов
Аудио 3: аудиокодек: AC3 2.0, 48 KHz, битрейт аудио: 192 кб/с - Авторский, Дохалов
Аудио 4: аудиокодек: AC3 2.0, 48 KHz, битрейт аудио: 192 кб/с - Английский
Размер рипа: 2,17Gb
frame I:1125 Avg QP:14.48 size: 70209
frame P:32844 Avg QP:16.84 size: 25221
frame B:95257 Avg QP:19.68 size: 8501
Format : Matroska
Format version : Version 2
File size : 2.18 GiB
Duration : 1h 26mn
Overall bit rate : 3 620 Kbps
Movie name : Чужая нация [1988, HDTVRip/AVC] || big1987
Encoded date : UTC 2012-03-15 07:41:59
Writing application : mkvmerge v5.0.1 ('Es ist Sommer') built on Nov 6 2011 16:23:40
Writing library : libebml v1.2.2 + libmatroska v1.3.0
Video
ID : 1
Format : AVC
Format/Info : Advanced Video Codec
Format profile : High@L4.1
Format settings, CABAC : Yes
Format settings, ReFrames : 8 frames
Codec ID : V_MPEG4/ISO/AVC
Duration : 1h 26mn
Bit rate : 2 658 Kbps
Width : 1 084 pixels
Height : 464 pixels
Display aspect ratio : 2.35:1
Frame rate : 25.000 fps
Color space : YUV
Chroma subsampling : 4:2:0
Bit depth : 8 bits
Scan type : Progressive
Bits/(Pixel*Frame) : 0.211
Stream size : 1.56 GiB (71%)
Title : Чужая нация [1988, HDTVRip/AVC] || big1987
Writing library : x264 core 122 r2184 5c85e0a
Encoding settings : cabac=1 / ref=8 / deblock=1:-3:-2 / analyse=0x3:0x133 / me=umh / subme=10 / psy=1 / psy_rd=1.00:0.20 / mixed_ref=1 / me_range=32 / chroma_me=1 / trellis=2 / 8x8dct=1 / cqm=0 / deadzone=21,11 / fast_pskip=1 / chroma_qp_offset=-3 / threads=6 / sliced_threads=0 / nr=0 / decimate=1 / interlaced=0 / bluray_compat=0 / constrained_intra=0 / bframes=7 / b_pyramid=2 / b_adapt=2 / b_bias=0 / direct=3 / weightb=1 / open_gop=0 / weightp=2 / keyint=250 / keyint_min=25 / scenecut=40 / intra_refresh=0 / rc_lookahead=60 / rc=2pass / mbtree=1 / bitrate=2658 / ratetol=1.0 / qcomp=0.60 / qpmin=0 / qpmax=69 / qpstep=4 / cplxblur=20.0 / qblur=0.5 / ip_ratio=1.40 / aq=1:1.00
Language : English
Default : Yes
Forced : No
Audio #1
ID : 2
Format : AC-3
Format/Info : Audio Coding 3
Mode extension : CM (complete main)
Codec ID : A_AC3
Duration : 1h 26mn
Bit rate mode : Constant
Bit rate : 384 Kbps
Channel(s) : 6 channels
Channel positions : Front: L C R, Side: L R, LFE
Sampling rate : 48.0 KHz
Bit depth : 16 bits
Compression mode : Lossy
Stream size : 237 MiB (11%)
Title : MVO [AC3 5.1@384kbps]
Language : Russian
Default : Yes
Forced : No
Audio #2
ID : 3
Format : AC-3
Format/Info : Audio Coding 3
Mode extension : CM (complete main)
Codec ID : A_AC3
Duration : 1h 26mn
Bit rate mode : Constant
Bit rate : 192 Kbps
Channel(s) : 2 channels
Channel positions : Front: L R
Sampling rate : 48.0 KHz
Bit depth : 16 bits
Compression mode : Lossy
Stream size : 118 MiB (5%)
Title : AVO {Гаврилов} [AC3 2.0@192kbps]
Language : Russian
Default : No
Forced : No
Audio #3
ID : 4
Format : AC-3
Format/Info : Audio Coding 3
Mode extension : CM (complete main)
Codec ID : A_AC3
Duration : 1h 26mn
Bit rate mode : Constant
Bit rate : 192 Kbps
Channel(s) : 2 channels
Channel positions : Front: L R
Sampling rate : 48.0 KHz
Bit depth : 16 bits
Compression mode : Lossy
Stream size : 118 MiB (5%)
Title : AVO {Дохалов} [AC3 2.0@192kbps]
Language : Russian
Default : No
Forced : No
Audio #4
ID : 5
Format : AC-3
Format/Info : Audio Coding 3
Mode extension : CM (complete main)
Codec ID : A_AC3
Duration : 1h 26mn
Bit rate mode : Constant
Bit rate : 192 Kbps
Channel(s) : 2 channels
Channel positions : Front: L R
Sampling rate : 48.0 KHz
Bit depth : 16 bits
Compression mode : Lossy
Stream size : 118 MiB (5%)
Title : [AC3 2.0@192kbps]
Language : English
Default : No
Forced : No
Фильм снимался в Лос-Анджелесе на протяжении трех месяцев – с 12 октября 1987-го по 13 января 1988 года.
Рабочие названия картины – «Будущие времена» и «Внешнее раздражение».
К написанию сценария к фильму приложил свою руку и Джеймс Кэмерон, но в финальных титрах его имя не значится.



Скачать Чужая.нация.Нация.пришельцев.Чужой.народ.Alien.Nation.(Грэм.Бейкер).[1988.фантастика.триллер.драма.криминал.HDTVRip-AVC].[MVO].+.2x[AVO].torrent без регистрации
Золото ЗОЛОТАЯ РАЗДАЧА! СКАЧАННОЕ НЕ ЗАСЧИТЫВАЕТСЯ! Золото
Дата: Зарегистрирован   [ Тип: внутренний ] Как тут cкачать?
MAGNET ссылка
MAGNET ссылка


Скачать .torrent

11 KB

Статус: проверено
Скачан: торрент - 151 раз, раздача полностью - 11 раз
Размер: 2,18 GB
Оценка:  - (Голосов: 0)
Поблагодарили: 3
Поделиться ссылкой на эту раздачу с друзьями:
В контактеFacebookОдноклассникиTwitterLivejournalМой МирLiveinternet
 

 
Показать сообщения:    


Вы не можете начинать темы
Вы не можете отвечать на сообщения
Вы не можете редактировать свои сообщения
Вы не можете удалять свои сообщения
Вы не можете голосовать в опросах
Вы не можете прикреплять файлы к сообщениям
Вы можете скачивать файлы