Loading...
Error

Скачать Голос луны / La Voce della luna (Федерико Феллини) [1990, Драма, мелодрама, комедия, детектив, приключения, DVDRip] [VO] торрент без регистрации

 
Статистика раздачи
Размер:  744 MB   |    Скачан:  140 раз

Полного источника не было: 8 месяцев

 
Автор Сообщение

Marsianka

[] 

Голос луны / La Voce della luna

Страна: Франция, Италия
Жанр: Драма, мелодрама, комедия, детектив, приключения
Год выпуска: 1990
Продолжительность: 01:55:50
Перевод: Любительский (одноголосый закадровый)
Субтитры: нет

Режиссёр: Федерико Феллини / Federico Fellini

В ролях: Роберто Бениньи, Паоло Вилладжо, Надя Оттавиани, Мариса Томази, Анджело Орландо, Сьюзи Блэйди, Дарио Гирарди, Шевалье, Найджел Хэррис

Описание фильма: Главные герои не владеют своим рассудком. Их наваждение луна, и однажды им кажется, что они ее изловилиТо с иронией, то с печалью Феллини рассказывает об их приключениях в суетливом современном мире и в поэтическом мире ночи и мечты. Клоун и уличный торговец Иво Сольвини постоянно слышит призывный голос Луны. Музыканту, играющему на габое, регулярно мерещится что-то дьявольское режиссер представил нам мир с точки зрения безобидного помешанного, только что вышедшего из психбольницы.




Качество: DVDRip
Формат: AVI
Видео: XviD; 640x352 (16:9); 776 Kbps; 25 fps; 0,138 bpp
Аудио: MPEG-1 Audio layer 3; 112 Kbps; CBR; 2 ch [Russian]









Общее
Полное имя : C:1990_La_Voce_della_luna.avi
Формат : AVI
Формат/Информация : Audio Video Interleave
Размер файла : 744 Мбайт
Продолжительность : 1 ч. 55 м.
Общий поток : 898 Кбит/сек
Программа кодирования : VirtualDubMod 1.5.10.2 (build 2540/release)
Библиотека кодирования : VirtualDubMod build 2540/release

Видео
Идентификатор : 0
Формат : MPEG-4 Visual
Профиль формата : Advanced Simple@L5
Параметр BVOP формата : 1
Параметр QPel формата : Нет
Параметр GMC формата : Без точки перехода
Параметр матрицы формата : Default (MPEG)
Идентификатор кодека : XVID
Идентификатор кодека/Подсказка : XviD
Продолжительность : 1 ч. 55 м.
Битрейт : 776 Кбит/сек
Ширина : 640 пикселей
Высота : 352 пикселя
Соотношение сторон : 16:9
Частота кадров : 25,000 кадров/сек
Цветовое пространство : YUV
Субдискретизация насыщенности : 4:2:0
Битовая глубина : 8 бит
Тип развёртки : Прогрессивная
Метод сжатия : С потерями
Бит/(Пиксели*Кадры) : 0.138
Размер потока : 643 Мбайт (86%)
Библиотека кодирования : XviD 1.2.1 (UTC 2008-12-04)

Аудио
Идентификатор : 1
Формат : MPEG Audio
Версия формата : Version 1
Профиль формата : Layer 3
Идентификатор кодека : 55
Идентификатор кодека/Подсказка : MP3
Продолжительность : 1 ч. 55 м.
Вид битрейта : Постоянный
Битрейт : 112 Кбит/сек
Каналы : 2 канала
Частота : 44,1 КГц
Метод сжатия : С потерями
Размер потока : 92,8 Мбайт (12%)
Выравнивание : Разделение по промежуткам
Продолжительность промежутка : 40 мс. (1,00 видеокадр)
Время предзагрузки промежутка : 500 мс.
Библиотека кодирования : LAME3.98r
Настройки программы : -m s -V 4 -q 2 -lowpass 15.6 -b 112

Релиз от: tеko



Скачать Голос.луны.La.Voce.della.luna.(Федерико.Феллини).[1990.Драма.мелодрама.комедия.детектив.приключения.DVDRip].[VO].torrent без регистрации
Золото ЗОЛОТАЯ РАЗДАЧА! СКАЧАННОЕ НЕ ЗАСЧИТЫВАЕТСЯ! Золото
Дата: Зарегистрирован   [ Тип: внутренний ] Как тут cкачать?
MAGNET ссылка
MAGNET ссылка


Скачать .torrent

15 KB

Статус: проверено
Скачан: торрент - 140 раз, раздача полностью - 5 раз
Размер: 744 MB
Оценка:  - (Голосов: 0)
Поблагодарили: 2
Поделиться ссылкой на эту раздачу с друзьями:
В контактеFacebookОдноклассникиTwitterLivejournalМой МирLiveinternet
 

 
Показать сообщения:    


Вы не можете начинать темы
Вы не можете отвечать на сообщения
Вы не можете редактировать свои сообщения
Вы не можете удалять свои сообщения
Вы не можете голосовать в опросах
Вы не можете прикреплять файлы к сообщениям
Вы можете скачивать файлы