Loading...
Error

Скачать Турецкий гамбит (полная телеверсия) (Джаник Файзиев) [2005, исторический, военный, детектив, DVDRip-AVC] [Hi10P] [Лицензия] торрент без регистрации

 
Статистика раздачи
Размер:  4,34 GB   |    Скачан:  289 раз
Сидов:  1  [  0 KB/s  ]  
 
Автор Сообщение

МихаНЕзатор

[] 

Турецкий гамбит
[полная телеверсия]
(2005)
DVDRip-AVC Hi10P от FREEISLAND





Год выхода: 2005
Жанр: Исторический, Военный, Детектив
Режиссер: Джаник Файзиев

В ролях: Егор Бероев, Ольга Красько, Марат Башаров, Владимир Ильин, Дмитрий Певцов, Виктор Вержбицкий, Александр Балуев, Алексей Гуськов, Гоша Куценко, Александр Олешко, Андрей Краско, Леонид Куравлев, Евгений Лазарев, Дидье Бьенемэ, Виктор Бычков, Сергей Газаров, Александр Лыков, Даниэль Ольбрыхский, Валдис Пельш, Андрей Руденский, Анатолий Кузнецов, Олег Макаров, Станислав Дужников

Описание:
Фильм основан на романе Бориса Акунина о похождениях Эраста Фандорина «Турецкий Гамбит». Титулярный советник Эраст Фандорин принимает участие в военных действиях в ходе русско-турецкой войны 1877-1878 гг. Будучи сербским волонтером, Эраст Петрович знакомится с очаровательной барышней - Варварой Андреевной Суворовой, направляющейся в расположение русских войск, чтобы повидаться со своим женихом. С ее помощью Фандорину удается распутать сложное и таинственное дело о шпионаже...



Официальный сайт

Страна: Россия, Болгария
Продолжительность: 3 ч. 26 м. 41 с. (4 x ~50 мин.)
Перевод: оригинал [лицензия]
Оригинальная разбивка на главы: сохранена

Дополнительная информация:
Рип сделан на основе двухдискового издания расширенной ТВ-версии фильма.
Восстановлены все сюжетные линии, появились новые герои.
В полную версию вошли моменты, которых не было в версии для кинотеатров и лицензионного DVD.

Качество: DVDRip-AVC Hi10P (SSIM: 0.98354845)
Исходник: 2 x DVD9
Контейнер: MKV
Видео кодек: x264 High10@L5.1 (не совместим с большинством бытовых плееров)
Аудио кодек: AC3
Видео: AVC at 2685 Кбит/сек, 720 x 408 @ 768 x 408 (1.882) at 25.000 fps
Аудио: AC-3 at 320 Кбит/сек, 2 канала, 48,0 КГц
Субтитры: русские (VobSub)

Общее
Уникальный идентификатор : 207762813506494327621189635839628902814 (0x9C4DA99224DA6DF8978CF7E783B7819E)
Полное имя : Турецкий гамбит [полная телеверсия] (2005) DVDRip-Hi10P.mkv
Формат : Matroska
Версия формата : Version 2
Размер файла : 4,34 Гбайт
Продолжительность : 3 ч. 26 м.
Общий поток : 3007 Кбит/сек
Название фильма : релиз от FREEISLAND.ORG
Дата кодирования : UTC 2012-03-15 16:26:41
Программа кодирования : mkvmerge v5.4.0 ('Piper') built on Mar 10 2012 13:34:39
Библиотека кодирования : libebml v1.2.3 + libmatroska v1.3.0

Видео
Идентификатор : 1
Формат : AVC
Формат/Информация : Advanced Video Codec
Профиль формата : High 10@L5.1
Параметр CABAC формата : Да
Параметр ReFrames формата : 16 кадров
Идентификатор кодека : V_MPEG4/ISO/AVC
Продолжительность : 3 ч. 26 м.
Битрейт : 2685 Кбит/сек
Ширина : 720 пикселей
Высота : 408 пикселей
Соотношение сторон : 1,882
Частота кадров : 25,000 кадров/сек
Цветовое пространство : YUV
Субдискретизация насыщенности : 4:2:0
Битовая глубина : 10 бит
Тип развёртки : Прогрессивная
Бит/(Пиксели*Кадры) : 0.366
Размер потока : 3,79 Гбайт (87%)
Библиотека кодирования : x264 core 120 r2164+649+26 fcfb618 tMod [10-bit@all X86]
Настройки программы : cabac=1 / ref=16 / deblock=1:-1:-1 / analyse=0x3:0x133 / me=umh / subme=11 / psy=1 / fade_compensate=0.00 / psy_rd=1.00:0.00 / mixed_ref=1 / me_range=64 / chroma_me=1 / trellis=2 / 8x8dct=1 / cqm=0 / deadzone=21,11 / fast_pskip=0 / chroma_qp_offset=-2 / threads=12 / sliced_threads=0 / nr=0 / decimate=1 / interlaced=0 / bluray_compat=0 / constrained_intra=0 / fgo=0 / bframes=8 / b_pyramid=2 / b_adapt=2 / b_bias=0 / direct=3 / weightb=1 / open_gop=0 / weightp=2 / keyint=250 / keyint_min=25 / scenecut=40 / intra_refresh=0 / rc=2pass / mbtree=0 / bitrate=2685 / ratetol=1.0 / qcomp=1.00 / qpmin=0 / qpmax=48 / qpstep=4 / cplxblur=20.0 / qblur=0.5 / ip_ratio=1.40 / pb_ratio=1.30 / aq=3:1.00
Default : Да
Forced : Нет
Основные цвета : BT.601-6 525, BT.1358 525, BT.1700 NTSC, SMPTE 170M
Характеристики трансфера : BT.601-6 525, BT.601-6 625, BT.1358 525, BT.1358 625, BT.1700 NTSC, SMPTE 170M
Коэффициенты матрицы : BT.601-6 525, BT.1358 525, BT.1700 NTSC, SMPTE 170M

Аудио
Идентификатор : 2
Формат : AC-3
Формат/Информация : Audio Coding 3
Расширение режима : CM (complete main)
Идентификатор кодека : A_AC3
Продолжительность : 3 ч. 26 м.
Вид битрейта : Постоянный
Битрейт : 320 Кбит/сек
Каналы : 2 канала
Расположение каналов : Front: L R
Частота : 48,0 КГц
Битовая глубина : 16 бит
Метод сжатия : С потерями
Размер потока : 473 Мбайт (11%)
Язык : Russian
Default : Да
Forced : Нет

Текст
Идентификатор : 3
Формат : VobSub
Режим смешивания : zlib
Идентификатор кодека : S_VOBSUB
Идентификатор кодека/Информация : The same subtitle format used on DVDs
Язык : Russian
Default : Нет
Forced : Нет

Меню
00:00:00.000 : ru:[01] Первая серия
00:12:31.240 : ru:[02]
00:20:00.680 : ru:[03]
00:39:44.120 : ru:[04]
00:51:29.680 : ru:[05] Вторая серия
01:00:12.760 : ru:[06]
01:16:01.200 : ru:[07]
01:27:38.880 : ru:[08]
01:42:46.320 : ru:[09] Третья серия
01:58:00.240 : ru:[10]
02:07:57.080 : ru:[11]
02:24:18.120 : ru:[12]
02:32:38.440 : ru:[13] Четвёртая серия
02:43:41.560 : ru:[14]
02:55:51.720 : ru:[15]
03:06:03.600 : ru:[16]

-почему у меня есть звук и отсутствует изображение?
-почему у меня рассыпается картинка?
-почему у меня картинка фонит синевой или зеленью?
-зачем и кому всё это нужно?
и тому подобные, читаем FAQ.

ссылка на FAQ запрещена правилами.

По этому, гуглим на тему спойлера (Что такое 10-ти битное видео (High 10 Profile - Hi10P), и как его смотреть?).


Релиз от:



Скачать Турецкий.гамбит.(полная.телеверсия).(Джаник.Файзиев).[2005.исторический.военный.детектив.DVDRip-AVC].[Hi10P].[Лицензия].torrent без регистрации
Золото ЗОЛОТАЯ РАЗДАЧА! СКАЧАННОЕ НЕ ЗАСЧИТЫВАЕТСЯ! Золото
Дата: Зарегистрирован   [ Тип: внутренний ] Как тут cкачать?
MAGNET ссылка
MAGNET ссылка


Скачать .torrent

11 KB

Статус: проверено DHT
Скачан: торрент - 289 раз, раздача полностью - 264 раз
Размер: 4,34 GB
Оценка:  5 (Голосов: 3)
Поблагодарили: 6
Поделиться ссылкой на эту раздачу с друзьями:
В контактеFacebookОдноклассникиTwitterLivejournalМой МирLiveinternet
 

 
Показать сообщения:    


Вы не можете начинать темы
Вы не можете отвечать на сообщения
Вы не можете редактировать свои сообщения
Вы не можете удалять свои сообщения
Вы не можете голосовать в опросах
Вы не можете прикреплять файлы к сообщениям
Вы можете скачивать файлы