Loading...
Error

Скачать Френк и Джесси / Frank & Jesse (Роберт Борис) [1995, вестерн, биографический, DVDRip] [AVO] торрент без регистрации

 
Статистика раздачи
Размер:  1,46 GB   |    Скачан:  137 раз
Сидов:  1  [  0 KB/s  ]  
 
Автор Сообщение

leon030982

[] 

Френк и Джесси / Frank & Jesse
Страна: США
Жанр: Вестерн, биографический
Год выпуска: 1995
Продолжительность: 01:41:37
Перевод: Авторский (одноголосый закадровый) Андрей Гаврилов
Cубтитры: нет
Режиссер: Роберт Борис

В ролях: Роб Лоу, Билл Пэкстон, Рэнди Трэвис, Дана Уиллер-Николсон, Мария Питилло, Люк Аскью, Шон Патрик Флэнери, Алексис Аркетт, Тодд Филд, Джон Пайпер-Фергюсон

Описание: Дикая Америка 19-го века. Побеждает тот, кто стреляет первым. Но жажда мщения стучит в сердца униженных и оскорбленных. Закончилась Гражданская война между Севером и Югом. Север победил, и на земли Юга вторглись орды безжалостных «оккупантов»: прокладывая железную дорогу, банкиры-северяне не останавливались ни перед убийствами тех, кто не хотел отдавать за бесценок свою землю, ни перед иными преступлениями.
Практически на глазах Фрэнка и Джесси Джеймсов наемный киллер застрелил их отца и младшего брата. Братья отомстили за погибших. А потом вместе с такими же изгоями, братьями Янгер, принялись грабить банки и почтовые поезда. В погоню за преступниками устремился Аллен Пинкертон — уголовный мир Америки не знал более беспощадного врага…

Сэмпл: http://multi-up.com/668033
Качество видео: DVDRip
Формат видео: AVI
Видео: 688x528 (1.30:1), 25 fps, XviD build 50, 1860 kbps avg, 0.20 bit/pixel
Аудио: Russian: 48 kHz, AC3 Dolby Digital, 2/0 (L,R) ch, 192.00 kbps avg
General
Complete name : E:\Мои раздачи\Frank & Jesse (1995)_RG_All_Films.avi
Format : AVI
Format/Info : Audio Video Interleave
File size : 1.46 GiB
Duration : 1h 41mn
Overall bit rate : 2 062 Kbps
Writing application : VirtualDubMod 1.5.10.3 | www.virtualdub-fr.org || (build 2550/release)
Writing library : VirtualDubMod build 2550/release
Video
ID : 0
Format : MPEG-4 Visual
Format profile : Advanced Simple@L5
Format settings, BVOP : Yes
Format settings, QPel : No
Format settings, GMC : No warppoints
Format settings, Matrix : Custom
Codec ID : XVID
Codec ID/Hint : XviD
Duration : 1h 41mn
Bit rate : 1 860 Kbps
Width : 688 pixels
Height : 528 pixels
Display aspect ratio : 4:3
Frame rate : 25.000 fps
Color space : YUV
Chroma subsampling : 4:2:0
Bit depth : 8 bits
Scan type : Progressive
Compression mode : Lossy
Bits/(Pixel*Frame) : 0.205
Stream size : 1.32 GiB (90%)
Writing library : XviD 1.2.1 (UTC 2008-12-04)
Audio
ID : 1
Format : AC-3
Format/Info : Audio Coding 3
Mode extension : CM (complete main)
Codec ID : 2000
Duration : 1h 41mn
Bit rate mode : Constant
Bit rate : 192 Kbps
Channel(s) : 2 channels
Channel positions : Front: L R
Sampling rate : 48.0 KHz
Bit depth : 16 bits
Compression mode : Lossy
Stream size : 140 MiB (9%)
Alignment : Split accross interleaves
Interleave, duration : 40 ms (1.00 video frame)
Interleave, preload duration : 500 ms



Скачать Френк.и.Джесси.Frank.&.Jesse.(Роберт.Борис).[1995.вестерн.биографический.DVDRip].[AVO].torrent без регистрации
Золото ЗОЛОТАЯ РАЗДАЧА! СКАЧАННОЕ НЕ ЗАСЧИТЫВАЕТСЯ! Золото
Дата: Зарегистрирован   [ Тип: внутренний ] Как тут cкачать?
MAGNET ссылка
MAGNET ссылка


Скачать .torrent

15 KB

Статус: проверено DHT
Скачан: торрент - 137 раз, раздача полностью - 9 раз
Размер: 1,46 GB
Оценка:  - (Голосов: 0)
Поблагодарили: 1
Поделиться ссылкой на эту раздачу с друзьями:
В контактеFacebookОдноклассникиTwitterLivejournalМой МирLiveinternet
 

 
Показать сообщения:    


Вы не можете начинать темы
Вы не можете отвечать на сообщения
Вы не можете редактировать свои сообщения
Вы не можете удалять свои сообщения
Вы не можете голосовать в опросах
Вы не можете прикреплять файлы к сообщениям
Вы можете скачивать файлы