Loading...
Error

Скачать Черепашки-ниндзя 3 / Teenage Mutant Ninja Turtles III (Стюарт Гиллард) [1993, фантастика, фэнтези, боевик, комедия, приключения, семейный, BDRip-AVC] [MVO] (Новый канал) торрент без регистрации

 
Статистика раздачи
Размер:  2,19 GB   |    Скачан:  153 раза
Сидов:  1  [  0 KB/s  ]  
 
Автор Сообщение

leon030982

[] 


Черепашки мутанты ниндзя 3: Черепашки во времени (Самураи в Нью-Йорке)
Teenage Mutant Ninja Turtles III: Turtles in Time

Страна: США, Гонконг
Год выпуска: 1993
Жанр: боевик, фэнтези, комедия, приключения, семейный
Продолжительность: 01:35:46
Перевод: Многоголосный (закадровый) - Новый канал,
Субтитры: Русский, Английский, Французский
Оригинальная аудио дорожка: нет
Режиссер: Стюарт Гиллард
В ролях: Элиас Котеас, Пейдж Турко, Стюарт Уилсон, Саб Симоно, Вивиан Ву, Марк Казо, Мэтт Хилл, Джим Рапоса, Дэвид Фрайзер, Генри Хаяши, Джон Эйлуорд, Мак Такано, Steve Akahoshi, Кент Ким, Кен Кенсей, Трэвис А. Мун, Тэд Хорино, Глен Чин и др.
Описание: Эйприл где-то на распродаже купила Сплинтеру старинный японский скипетр, и ещё всяких других подарков для своих друзей черепашек. Как выяснилось, этот скипетр — не просто обычный антиквариат, а прообраз машины времени. Но он работает только в том случае, когда вес путешественников во времени одинаков с обоих сторон.
Так случилось, что скипетр перенес Эйприл в феодальную Японию, в 1393-й год. Следом за ней отправились и черепашки, но вот беда, вместо того, чтобы попасть в храм, где по идее должен был находится скипетр, они оказываются посреди поля сражения. Во всей этой неразберихе теряется Микеланджело со скипетром. И теперь черепашкам нужно не только спасти Эйприл, но и вернуть скипетр. В нашем времени в этот момент тоже совсем не скучно.

Исходник:
Качество: BDRip-AVC
Формат: MKV
Видео: 1024x576 (16:9), 23,976 fps, H264 ~ 2498 kbps avg, 0.177 bit/pixel
Аудио 1: 48 kHz, Dolby AC3 5.1, 384 kbps Русский [Новый канал]
Аудио 2: 48 kHz, Dolby AC3 5.1, 384 kbps Английский
Формат субтитров: SoftSub (srt)
Общее
Полное имя : Cherepashki-nindzja.3.1993.BDRip-AVC.2.18.mkv
Формат : Matroska
Версия формата : Version 2
Размер файла : 2,19 Гбайт
Продолжительность : 1 ч. 35 м.
Общий поток : 3266 Кбит/сек
Название фильма : Cherepashki-nindzja.3.1993.BDRip-AVC.2.18-AVP Studio
Дата кодирования : UTC 2012-03-15 05:49:03
Программа кодирования : mkvmerge v5.2.0 ('I can't explain') built on Dec 18 2011 18:12:03
Библиотека кодирования : libebml v1.2.3 + libmatroska v1.3.0
Видео
Идентификатор : 1
Формат : AVC
Формат/Информация : Advanced Video Codec
Профиль формата : High@L4.1
Параметр CABAC формата : Да
Параметр ReFrames формата : 8 кадров
Идентификатор кодека : V_MPEG4/ISO/AVC
Продолжительность : 1 ч. 35 м.
Битрейт : 2498 Кбит/сек
Ширина : 1024 пикселя
Высота : 576 пикселей
Соотношение сторон : 16:9
Частота кадров : 23,976 кадра/сек
Цветовое пространство : YUV
Субдискретизация насыщенности : 4:2:0
Битовая глубина : 8 бит
Тип развёртки : Прогрессивная
Бит/(Пиксели*Кадры) : 0.177
Размер потока : 1,63 Гбайт (74%)
Заголовок : Источник BDRemux
Библиотека кодирования : x264 core 119 r2106 07efeb4
Настройки программы : cabac=1 / ref=8 / deblock=1:-2:-1 / analyse=0x3:0x113 / me=umh / subme=9 / psy=1 / psy_rd=1.00:0.10 / mixed_ref=1 / me_range=32 / chroma_me=1 / trellis=1 / 8x8dct=1 / cqm=0 / deadzone=21,11 / fast_pskip=1 / chroma_qp_offset=-3 / threads=3 / sliced_threads=0 / nr=0 / decimate=1 / interlaced=0 / bluray_compat=0 / constrained_intra=0 / bframes=8 / b_pyramid=2 / b_adapt=1 / b_bias=0 / direct=3 / weightb=1 / open_gop=0 / weightp=0 / keyint=250 / keyint_min=23 / scenecut=40 / intra_refresh=0 / rc_lookahead=60 / rc=2pass / mbtree=1 / bitrate=2498 / ratetol=1.0 / qcomp=0.60 / qpmin=0 / qpmax=69 / qpstep=4 / cplxblur=20.0 / qblur=0.5 / ip_ratio=1.40 / aq=1:1.00
Язык : English
Default : Да
Forced : Нет
Аудио #1
Идентификатор : 2
Формат : AC-3
Формат/Информация : Audio Coding 3
Расширение режима : CM (complete main)
Идентификатор кодека : A_AC3
Продолжительность : 1 ч. 35 м.
Вид битрейта : Постоянный
Битрейт : 384 Кбит/сек
Каналы : 6 каналов
Расположение каналов : Front: L C R, Side: L R, LFE
Частота : 48,0 КГц
Битовая глубина : 16 бит
Метод сжатия : С потерями
Размер потока : 263 Мбайт (12%)
Заголовок : Источник DVD
Язык : Russian
Default : Да
Forced : Нет
Аудио #2
Идентификатор : 3
Формат : AC-3
Формат/Информация : Audio Coding 3
Расширение режима : CM (complete main)
Идентификатор кодека : A_AC3
Продолжительность : 1 ч. 35 м.
Вид битрейта : Постоянный
Битрейт : 384 Кбит/сек
Каналы : 6 каналов
Расположение каналов : Front: L C R, Side: L R, LFE
Частота : 48,0 КГц
Битовая глубина : 16 бит
Метод сжатия : С потерями
Размер потока : 263 Мбайт (12%)
Заголовок : Источник BDRemux
Язык : English
Default : Нет
Forced : Нет
Текст #1
Идентификатор : 4
Формат : UTF-8
Идентификатор кодека : S_TEXT/UTF8
Идентификатор кодека/Информация : UTF-8 Plain Text
Заголовок : Источник DVD
Язык : Russian
Default : Нет
Forced : Нет
Текст #2
Идентификатор : 5
Формат : UTF-8
Идентификатор кодека : S_TEXT/UTF8
Идентификатор кодека/Информация : UTF-8 Plain Text
Заголовок : Источник DVD
Язык : English
Default : Нет
Forced : Нет
Текст #3
Идентификатор : 6
Формат : UTF-8
Идентификатор кодека : S_TEXT/UTF8
Идентификатор кодека/Информация : UTF-8 Plain Text
Заголовок : Источник DVD
Язык : French
Default : Нет
Forced : Нет



Скачать Черепашки-ниндзя.3.Teenage.Mutant.Ninja.Turtles.III.(Стюарт.Гиллард).[1993.фантастика.фэнтези.боевик.комедия.приключения.семейный.BDRip-AVC].[MVO].(Новый.канал).torrent без регистрации
Золото ЗОЛОТАЯ РАЗДАЧА! СКАЧАННОЕ НЕ ЗАСЧИТЫВАЕТСЯ! Золото
Дата: Зарегистрирован   [ Тип: внутренний ] Как тут cкачать?
MAGNET ссылка
MAGNET ссылка


Скачать .torrent

12 KB

Статус: проверено DHT
Скачан: торрент - 153 раз, раздача полностью - 53 раз
Размер: 2,19 GB
Оценка:  - (Голосов: 0)
Поблагодарили: 2
Поделиться ссылкой на эту раздачу с друзьями:
В контактеFacebookОдноклассникиTwitterLivejournalМой МирLiveinternet
 

 
Показать сообщения:    


Вы не можете начинать темы
Вы не можете отвечать на сообщения
Вы не можете редактировать свои сообщения
Вы не можете удалять свои сообщения
Вы не можете голосовать в опросах
Вы не можете прикреплять файлы к сообщениям
Вы можете скачивать файлы