Loading...
Error

Скачать Кудряшка Сью / Curly Sue (Джон Хьюз) [1991 г., Комедия, мелодрама, семейный, HDTVRip] [MVO] + [DUB] + [AVO] торрент без регистрации

 
Статистика раздачи
Размер:  2,46 GB   |    Скачан:  149 раз
Сидов:  1  [  0 KB/s  ]  
 
Автор Сообщение

leon030982

[] 

Кудряшка Сью / Curly Sue
Год выпуска: 1991
Страна: США
Жанр: Комедия, мелодрама, семейный
Продолжительность: 01:42:08
Перевод: Профессиональный (многоголосый, закадровый)
Русские субтитры: есть
-отдельно
Режиссер: Джон Хьюз / John Hughes
В ролях: Джеймс Белуши, Келли Линч, Элисан Портер, Джон Гетз, Фред Далтон Томпсон, Камерон Тор, Брэнском Ричмонд, Стив Карелл, Гэйл Боггс, Бурк Бернс
Описание: Аферист-бродяга (обаятельнейший Белуши) имеет на своем попечении очень сообразительную и живую девочку девяти лет, схватывающую основы его "профессии" очень легко. Вместе они расставляют ловушку для преуспевающей адвокатши и проникают в ее роскошный дом, постепенно завоевывая ее сердце. Шедевральная комедия Режиссёра Джона Хьюза пропитанна юмором добротой и теплом. Эдакая рождественская карамель, в обертке от Белуши, срабатывает на все "сто" !!!

СЭМПЛ 1
СЭМПЛ 2
СЭМПЛ 3
Качество: HDTVRip(Исх.HDTVRip 720)
Формат: AVI
Видео кодек: XviD
Аудио кодек: AC3
Видео: 720x400 (1.80:1), 23.976 fps, XviD build 50 ~2281 kbps avg, 0.33 bit/pixel
Audio #1: 48 kHz, AC3 Dolby Digital, 3/2 (L,C,R,l,r) + LFE ch, ~384 kbps Многоголоска
Audio #2: 48 kHz, AC3 Dolby Digital, 3/2 (L,C,R,l,r) + LFE ch, ~384 kbps Английский
Audio #3: 48 kHz, AC3 Dolby Digital, 2/0 (L,R) ch, ~192 kbps Дубляж - отдельно-delay 11000ms
Audio #4: 48 kHz, AC3 Dolby Digital, 2/0 (L,R) ch, ~192 kbps Михалев - отдельно-delay 11000ms
Субтитры:русские,английские - отдельно
File: Kudriachka Syu.chopper887.avi
Filesize: 2235.61 Mb ( 2 344 210 432 bytes )
Play length: 01:42:08.632 (146940 frames)
Subtitles: Eng, Rus (SubRip format)
Video: 720x400 (1.80:1), 23.976 fps, XviD build 50 ~2281 kbps avg, 0.33 bit/pixel
Audio #1: 48 kHz, AC3 Dolby Digital, 3/2 (L,C,R,l,r) + LFE ch, ~384 kbps
Audio #2: 48 kHz, AC3 Dolby Digital, 3/2 (L,C,R,l,r) + LFE ch, ~384 kbps
General
Complete name : F:\Kudriachka Syu.chopper887\Kudriachka Syu.chopper887.avi
Format : AVI
Format/Info : Audio Video Interleave
File size : 2.18 GiB
Duration : 1h 42mn
Overall bit rate : 3 060 Kbps
Writing application : VirtualDubMod 1.5.10.2 (build 2540/release)
Writing library : VirtualDubMod build 2540/release
Video
ID : 0
Format : MPEG-4 Visual
Format profile : Advanced Simple@L5
Format settings, BVOP : Yes
Format settings, QPel : No
Format settings, GMC : No warppoints
Format settings, Matrix : Custom

Codec ID : XVID
Codec ID/Hint : XviD
Duration : 1h 42mn
Bit rate : 2 282 Kbps
Width : 720 pixels
Height : 400 pixels
Display aspect ratio : 16:9
Frame rate : 23.976 fps
Color space : YUV
Chroma subsampling : 4:2:0
Bit depth : 8 bits
Scan type : Progressive
Bits/(Pixel*Frame) : 0.330
Stream size : 1.63 GiB (75%)
Writing library : XviD 1.2.1 (UTC 2008-12-04)
Audio #1
ID : 1
Format : AC-3
Format/Info : Audio Coding 3
Mode extension : CM (complete main)
Codec ID : 2000
Duration : 1h 41mn
Bit rate mode : Constant
Bit rate : 384 Kbps
Channel(s) : 6 channels
Channel positions : Front: L C R, Side: L R, LFE
Sampling rate : 48.0 KHz
Stream size : 278 MiB (12%)
Alignment : Split accross interleaves
Interleave, duration : 42 ms (1.01 video frame)
Interleave, preload duration : 500 ms
Audio #2
ID : 2
Format : AC-3
Format/Info : Audio Coding 3
Mode extension : CM (complete main)
Codec ID : 2000
Duration : 1h 42mn
Bit rate mode : Constant
Bit rate : 384 Kbps
Channel(s) : 6 channels
Channel positions : Front: L C R, Side: L R, LFE
Sampling rate : 48.0 KHz
Stream size : 281 MiB (13%)
Alignment : Split accross interleaves
Interleave, duration : 42 ms (1.00 video frame)
Interleave, preload duration : 500 ms



Скачать Кудряшка.Сью.Curly.Sue.(Джон.Хьюз).[1991.г.Комедия.мелодрама.семейный.HDTVRip].[MVO].+.[DUB].+.[AVO].torrent без регистрации
Золото ЗОЛОТАЯ РАЗДАЧА! СКАЧАННОЕ НЕ ЗАСЧИТЫВАЕТСЯ! Золото
Дата: Зарегистрирован   [ Тип: внутренний ] Как тут cкачать?
MAGNET ссылка
MAGNET ссылка


Скачать .torrent

13 KB

Статус: проверено DHT
Скачан: торрент - 149 раз, раздача полностью - 16 раз
Размер: 2,46 GB
Оценка:  - (Голосов: 0)
Поблагодарили: 0
Поделиться ссылкой на эту раздачу с друзьями:
В контактеFacebookОдноклассникиTwitterLivejournalМой МирLiveinternet
 

 
Показать сообщения:    


Вы не можете начинать темы
Вы не можете отвечать на сообщения
Вы не можете редактировать свои сообщения
Вы не можете удалять свои сообщения
Вы не можете голосовать в опросах
Вы не можете прикреплять файлы к сообщениям
Вы можете скачивать файлы