Loading...
Error

Скачать Парижские тайны / Les Mysteres de Paris (Андре Юнебель) [1962, историко-приключенческая драма, DVDRip] [DUB] торрент без регистрации

Статистика раздачи
Размер:  1,34 GB   |    Скачан:  295 раз
Сидов:  1  [  0 KB/s  ]  
 
 
 
Автор Сообщение

leon030982

[] 

Парижские тайны / Les Mysteres de Paris
Страна: Франция, Италия
Жанр: Историко-приключенческая драма
Год выпуска: 1962
Продолжительность: 01:41:46
Перевод: Профессиональный (дублированный)
Cубтитры: нет
Режиссер: Андре Юнебель
В ролях: Жан Марэ,Дани Робен,Джилл Хэйуорт,Раймон Пеллегрен,Пьер Монди,Ноэль Роквер,Шарль Буйо,Жан ле Пулен
Описание: #1
Маркиз Родольф (Жан Марэ) - умен, отважен, красив, азартен и великодушен. Он любит женщин, уважает дуэли и часто заключает пари. Одна из таких "невинных" великосветских "забав" приводит к смерти простого горожанина, вдова которого вскоре умирает в нищете, а красавица-дочь исчезает в лабиринте криминальных кварталов французской столицы. Чувствуя себя виноватым в случившемся с семейством, отважный маркиз клянется найти и спасти девушку. Он одевается простолюдином и отправляется в путь. Все глубже и глубже погружается мужественный Родольф в "чрево Парижа", полное мрачных тайн, странных сюрпризов и изощренных интриг. В зловонных городских трущобах герой Жана Марэ настойчиво ищет девушку-сироту а находит опасные приключения, настоящую дружбу и истинную любовь...
#2
Главный герой фильма — маркиз Родольф де Сомбрей, которого играет Жан Марэ. Ему противостоит злодей Лансиньяк. У Родольфа есть подруга Ирэн, которая несколько колеблется между честным, но не сказочно богатым Родольфом и бесчестным, но богатым Лансиньяком.
Однажды, участвуя в уличной гонке на каретах, маркиз наезжает на старого бедняка. Бедняк оказывается жив и говорит, что не пострадал. Родольф даёт ему свой кошелёк с деньгами. В дальнейшем пропадает дочь бедняка Мари. В деле замешана злая сводница Сова. Родольф пытается спасти девушку, попадая в различные неприятности — козни ему чинят Лансиньяк, Сова и их помощники-бандиты...
#3
Маркиз Родольф Де Самбрей (Марэ) случайно сбивает каретой какого-то бедняка. Тот умирает, семья теряет кормильца, и дочка несчастного Мари (Хоуорт) впоисках пропитания попадает в дурную компанию. Благородный Самбрей, чтобы помочь ей, одевается в простую одежду и идет в трущобы. А в это время злодей барон Лансиньяк (Раймон Пеллегрэн) затевает против маркиза дьявольские козни...

Доп. информация: Фильм дублирован на киностудии

Режиссёр дубляжа: Г.Калитиевский
Звукооператор дубляжа: Н.Прилуцкий

В РИПЕ В НАЧАЛЕ И В КОНЦЕ ФИЛЬМА ВОССТАНОВЛЕНЫ ТИТРЫ СОВЕТСКОЙ ПРОКАТНОЙ ВЕРСИИ, ИМИ ЗАМЕНИЛИ ФРАНЦУЗСКИЕ ТИТРЫ, КОТОРЫЕ В ОСТАЛЬНЫХ РАЗДАЧАХ. ТАК БЫЛО В ВЕРСИИ ПОКАЗАННОЙ В СССР
ЭТО ПОЛНАЯ, НЕ УРЕЗАННАЯ ВЕРСИЯ, ЗВУК НАЧИНАЕТСЯ С ПЕРВОЙ СЕКУНДЫ ФИЛЬМА.


Релиз
КАК ВСЕГДА БОЛЬШОЕ СПАСИБО:
DVD предоставил Surehand
Титры прокатной версии предоставили dsz(скрины) и Diamed1975(сэмплы)
Дубляж взят из раздачи lange97
Рип и синхронизация звука darck

Качество видео: DVDRip
Формат видео: AVI
Видео: 704x304 (2.32:1), 25 fps, XviD MPEG-4 ~1688 kbps avg, 0.32 bit/pixel
Аудио: 48 kHz, AC3 Dolby Digital, 2/0 (L,R) ch, ~192.00 kbps avg
General
Complete name : D:\КИНО\Parizhskie tajny.titry.CCCP.fenixclub.com.avi
Format : AVI
Format/Info : Audio Video Interleave
File size : 1.34 GiB
Duration : 1h 41mn
Overall bit rate : 1 890 Kbps
Movie name : Парижские тайны. титры.CCCP.fenixclub.com
Writing application : VirtualDubModRus 1.5.10.2 (build 2540/release) VirtualDubMod build 2540/release
Copyright : DaRcK
Video
ID : 0
Format : MPEG-4 Visual
Format profile : AdvancedSimple@L5
Format settings, BVOP : Yes
Format settings, QPel : No
Format settings, GMC : No warppoints
Format settings, Matrix : Default (MPEG)
Muxing mode : Packed bitstream
Codec ID : XVID
Codec ID/Hint : XviD
Duration : 1h 41mn
Bit rate : 1 688 Kbps
Width : 704 pixels
Height : 304 pixels
Display aspect ratio : 2.35:1
Frame rate : 25.000 fps
Resolution : 24 bits
Colorimetry : 4:2:0
Scan type : Progressive
Bits/(Pixel*Frame) : 0.316
Stream size : 1.20 GiB (89%)
Writing library : XviD 1.1.2 (UTC 2006-11-01)
Audio
ID : 1
Format : AC-3
Format/Info : Audio Coding 3
Codec ID : 2000
Duration : 1h 41mn
Bit rate mode : Constant
Bit rate : 192 Kbps
Channel(s) : 2 channels
Channel positions : L R
Sampling rate : 48.0 KHz
Video delay : 28ms
Stream size : 140 MiB (10%)
Alignment : Split accross interleaves
Interleave, duration : 40 ms (1.00 video frame)
Interleave, preload duration : 500 ms
Language : Не определен




Скачать Парижские.тайны.Les.Mysteres.de.Paris.(Андре.Юнебель).[1962.историко-приключенческая.драма.DVDRip].[DUB].torrent без регистрации
Золото ЗОЛОТАЯ РАЗДАЧА! СКАЧАННОЕ НЕ ЗАСЧИТЫВАЕТСЯ! Золото
Дата: Зарегистрирован   [ Тип: внутренний ] Как тут cкачать?
MAGNET ссылка
MAGNET ссылка


Скачать .torrent

14 KB

Статус: проверено DHT
Скачан: торрент - 295 раз, раздача полностью - 113 раз
Размер: 1,34 GB
Оценка:  - (Голосов: 0)
Поблагодарили: 2
Поделиться ссылкой на эту раздачу с друзьями:
В контактеFacebookОдноклассникиTwitterLivejournalМой МирLiveinternet
 

 
Показать сообщения:    


Вы не можете начинать темы
Вы не можете отвечать на сообщения
Вы не можете редактировать свои сообщения
Вы не можете удалять свои сообщения
Вы не можете голосовать в опросах
Вы не можете прикреплять файлы к сообщениям
Вы можете скачивать файлы