Loading...
Error

Скачать Парижские тайны / Les Mysteres de Paris (Андре Юнебель) [1962, приключения, BDRip-AVC] [Dub] (Советский) + [MVO] (5 канал) + [MVO] (Светла) + [MVO] (ТВЦ) торрент без регистрации

 
Статистика раздачи
Размер:  3,05 GB   |    Скачан:  129 раз
Сидов:  1  [  0 KB/s  ]  
 
Автор Сообщение

leon030982

[] 

Парижские тайны / Les Mysteres de Paris
Страна: Франция, Италия, Da.Ma. Cinematografica, P.A.C.
Жанр: Приключения, боевик
Год выпуска: 1962
Продолжительность: 01:45:51
Перевод 1: Профессиональный (дублированный) - Советский дубляж
Перевод 2: Профессиональный (многоголосый закадровый) - 5 канал
Перевод 3: Профессиональный (многоголосый закадровый) - Светла
Перевод 4: Профессиональный (многоголосый закадровый) - ТВЦ
Оригинальная аудиодорожка: французский
Режиссер: Андре Юнебель
В ролях: Жан Марэ, Дани Робен, Джилл Хаворт, Раймон Пеллегрен, Пьер Монди, Ален Декок, Жан Ле Пулен, Ноэль Роквер, Рене Гардес, Ги Делорм, Поль Камбо, Полетт Дюбо, Ален Буветт, Шарль Буйо, Бенуат Лабб, Лизетт Лебон, Мария Мерико, Бернар Мюссон, Ален Ноби, Рафаэль Паторни, Жорж Шамара

Описание: Маркиз Рудольф — умен, отважен, красив, азартен и великодушен. Он любит женщин, уважает дуэли и часто заключает пари. Одна из таких «невинных» великосветских «забав» приводит к смерти простого горожанина, вдова которого вскоре умирает в нищете, а красавица-дочь исчезает в лабиринте криминальных кварталов французской столицы. Чувствуя себя виноватым в случившемся с семейством, отважный маркиз клянется найти и спасти девушку. Он одевается простолюдином и отправляется в путь. Все глубже и глубже погружается мужественный Рудольф в «чрево Парижа», полное мрачных тайн, странных сюрпризов и изощренных интриг.

Релиз:
Автор: nnlabetik
Качество видео: BDRip-AVC (источник: xamster / Blu-ray Remux / 1080p)
Формат видео: MKV
Видео: MPEG-4 AVC, 2900 Кбит/сек, 1024 x 436 (2.35), 24.000 fps, 0.271
Аудио 1: AC-3, 192 Кбит/сек, 2 канала, 48,0 КГц - Советский дубляж
Аудио 2: AC-3, 192 Кбит/сек, 2 канала, 48,0 КГц - Многоголосый закадровый, 5 канал
Аудио 3: AC-3, 192 Кбит/сек, 2 канала, 48,0 КГц - Многоголосый закадровый, Светла
Аудио 4: AC-3, 192 Кбит/сек, 2 канала, 48,0 КГц - Многоголосый закадровый, ТВЦ
Аудио 5: AC-3, 448 Кбит/сек, 1 канал, 48,0 КГц - Французский оригинальный
[url]Сэмпл: ]http://multi-up.com/651271[/url]
Общее
Уникальный идентификатор : 170207061207309019741752967453354130817 (0x800CB00610688C93BC7DCA3607EE7D81)
Полное имя : ...\Parzhskie.tajny.1962.BDRip.(AVC).mkv
Формат : Matroska
Версия формата : Version 2
Размер файла : 3,05 Гбайт
Продолжительность : 1 ч. 45 м.
Общий поток : 4120 Кбит/сек
Название фильма : Release by ==nnlabetik==
Дата кодирования : UTC 2012-02-17 18:00:27
Программа кодирования : mkvmerge v5.3.0 ('I could have danced') built on Feb 9 2012 10:38:07
Библиотека кодирования : libebml v1.2.3 + libmatroska v1.3.0
Видео
Идентификатор : 1
Формат : AVC
Формат/Информация : Advanced Video Codec
Профиль формата : High@L4.1
Параметр CABAC формата : Да
Параметр ReFrames формата : 11 кадров
Идентификатор кодека : V_MPEG4/ISO/AVC
Продолжительность : 1 ч. 45 м.
Битрейт : 2900 Кбит/сек
Ширина : 1024 пикселя
Высота : 436 пикселей
Соотношение сторон : 2,35:1
Частота кадров : 24,000 кадра/сек
Цветовое пространство : YUV
Субдискретизация насыщенности : 4:2:0
Битовая глубина : 8 бит
Тип развёртки : Прогрессивная
Бит/(Пиксели*Кадры) : 0.271
Размер потока : 2,09 Гбайт (68%)
Библиотека кодирования : x264 core 120 r2164 da19765
Настройки программы : cabac=1 / ref=11 / deblock=1:-2:-2 / analyse=0x3:0x113 / me=umh / subme=11 / psy=1 / psy_rd=1.05:0.10 / mixed_ref=1 / me_range=32 / chroma_me=1 / trellis=2 / 8x8dct=1 / cqm=0 / deadzone=21,11 / fast_pskip=0 / chroma_qp_offset=-3 / threads=6 / sliced_threads=0 / nr=0 / decimate=1 / interlaced=0 / bluray_compat=0 / constrained_intra=0 / bframes=11 / b_pyramid=2 / b_adapt=1 / b_bias=0 / direct=3 / weightb=1 / open_gop=0 / weightp=2 / keyint=230 / keyint_min=23 / scenecut=40 / intra_refresh=0 / rc=2pass / mbtree=0 / bitrate=2900 / ratetol=1.0 / qcomp=0.70 / qpmin=0 / qpmax=69 / qpstep=4 / cplxblur=20.0 / qblur=0.5 / ip_ratio=1.40 / pb_ratio=1.30 / aq=1:1.00
Язык : French
Default : Да
Forced : Нет
Аудио #1
Идентификатор : 2
Формат : AC-3
Формат/Информация : Audio Coding 3
Расширение режима : CM (complete main)
Идентификатор кодека : A_AC3
Продолжительность : 1 ч. 45 м.
Вид битрейта : Постоянный
Битрейт : 192 Кбит/сек
Каналы : 2 канала
Расположение каналов : Front: L R
Частота : 48,0 КГц
Битовая глубина : 16 бит
Метод сжатия : С потерями
Размер потока : 145 Мбайт (5%)
Заголовок : Sov_Dub
Язык : Russian
Default : Да
Forced : Нет
Аудио #2
Идентификатор : 3
Формат : AC-3
Формат/Информация : Audio Coding 3
Расширение режима : CM (complete main)
Идентификатор кодека : A_AC3
Продолжительность : 1 ч. 45 м.
Вид битрейта : Постоянный
Битрейт : 192 Кбит/сек
Каналы : 2 канала
Расположение каналов : Front: L R
Частота : 48,0 КГц
Битовая глубина : 16 бит
Метод сжатия : С потерями
Размер потока : 145 Мбайт (5%)
Заголовок : MVO 5 kanal
Язык : Russian
Default : Нет
Forced : Нет
Аудио #3
Идентификатор : 4
Формат : AC-3
Формат/Информация : Audio Coding 3
Расширение режима : CM (complete main)
Идентификатор кодека : A_AC3
Продолжительность : 1 ч. 45 м.
Вид битрейта : Постоянный
Битрейт : 192 Кбит/сек
Каналы : 2 канала
Расположение каналов : Front: L R
Частота : 48,0 КГц
Битовая глубина : 16 бит
Метод сжатия : С потерями
Размер потока : 145 Мбайт (5%)
Заголовок : MVO Svetla
Язык : Russian
Default : Нет
Forced : Нет
Аудио #4
Идентификатор : 5
Формат : AC-3
Формат/Информация : Audio Coding 3
Расширение режима : CM (complete main)
Идентификатор кодека : A_AC3
Продолжительность : 1 ч. 45 м.
Вид битрейта : Постоянный
Битрейт : 192 Кбит/сек
Каналы : 2 канала
Расположение каналов : Front: L R
Частота : 48,0 КГц
Битовая глубина : 16 бит
Метод сжатия : С потерями
Размер потока : 145 Мбайт (5%)
Заголовок : MVO TVC
Язык : Russian
Default : Нет
Forced : Нет
Аудио #5
Идентификатор : 6
Формат : AC-3
Формат/Информация : Audio Coding 3
Расширение режима : CM (complete main)
Идентификатор кодека : A_AC3
Продолжительность : 1 ч. 45 м.
Вид битрейта : Постоянный
Битрейт : 448 Кбит/сек
Каналы : 1 канал
Расположение каналов : Front: C
Частота : 48,0 КГц
Битовая глубина : 16 бит
Метод сжатия : С потерями
Размер потока : 339 Мбайт (11%)
Заголовок : Original
Язык : French
Default : Нет
Forced : Нет
Меню
00:00:00.000 : :Chapter 01
00:07:20.415 : :Chapter 02
00:13:18.625 : :Chapter 03
00:19:58.458 : :Chapter 04
00:29:19.875 : :Chapter 05
00:42:49.583 : :Chapter 06
00:51:46.666 : :Chapter 07
01:01:29.083 : :Chapter 08
01:09:53.416 : :Chapter 09
01:18:58.582 : :Chapter 10
01:29:55.875 : :Chapter 11
01:40:37.904 : :Chapter 12



Скачать Парижские.тайны.Les.Mysteres.de.Paris.(Андре.Юнебель).[1962.приключения.BDRip-AVC].[Dub].(Советский).+.[MVO].(5.канал).+.[MVO].(Светла).+.[MVO].(ТВЦ).torrent без регистрации
Золото ЗОЛОТАЯ РАЗДАЧА! СКАЧАННОЕ НЕ ЗАСЧИТЫВАЕТСЯ! Золото
Дата: Зарегистрирован   [ Тип: внутренний ] Как тут cкачать?
MAGNET ссылка
MAGNET ссылка


Скачать .torrent

16 KB

Статус: проверено DHT
Скачан: торрент - 129 раз, раздача полностью - 4 раз
Размер: 3,05 GB
Оценка:  - (Голосов: 0)
Поблагодарили: 1
Поделиться ссылкой на эту раздачу с друзьями:
В контактеFacebookОдноклассникиTwitterLivejournalМой МирLiveinternet
 

 
Показать сообщения:    


Вы не можете начинать темы
Вы не можете отвечать на сообщения
Вы не можете редактировать свои сообщения
Вы не можете удалять свои сообщения
Вы не можете голосовать в опросах
Вы не можете прикреплять файлы к сообщениям
Вы можете скачивать файлы